<?xml version="1.0" standalone="no"?>
<!DOCTYPE svg PUBLIC "-//W3C//DTD SVG 1.1//EN" "http://www.w3.org/Graphics/SVG/1.1/DTD/svg11.dtd">
<svg xmlns="http://www.w3.org/2000/svg">
<defs >
<font id="YanoneKaffeesatz" horiz-adv-x="405" ><font-face
    font-family="Yanone Kaffeesatz ExtraLight"
    units-per-em="1000"
    panose-1="0 0 0 0 0 0 0 0 0 0"
    ascent="735"
    descent="-200"
    alphabetic="0" />
<glyph unicode=" " horiz-adv-x="158" />
<glyph unicode="!" horiz-adv-x="195" d="M59 214L45 683Q45 694 53 698T85 704T156 706L140 251Q139 234 132 226T107 216T59 214ZM97 -7Q66 -7 54 8T42 50Q42 73 56 90T97 108Q128 108 140 92T153 50Q153 27 139 10T97 -7Z" />
<glyph unicode="&quot;" horiz-adv-x="264" d="M45 583Q45 586 43 606T38 655T33 712T31 760T34 782Q39 786 54 786T85 786T111 783Q111 763 109 731T104 666T96 611T90 586Q89 585 78 585T56 584T45 583ZM168 583Q167 586 165 606T161 655T156 712T154 760T156
782Q162 786 177 786T208 786T233 783Q233 763 231 731T226 666T219 611T213 586Q212 585 201 585T179 584T168 583Z" />
<glyph unicode="#" horiz-adv-x="418" d="M245 107L265 487Q266 500 282 501T336 503L316 123Q315 111 299 109T245 107ZM78 107L98 487Q99 500 116 501T170 503L150 123Q149 111 133 109T78 107ZM27 190Q27 229 29 241T44 254H390Q390 217 388 204T374 190H27ZM27
360Q27 399 29 411T44 424H390Q390 387 388 374T374 360H27Z" />
<glyph unicode="$" horiz-adv-x="418" d="M184 -8Q138 -8 109 0T66 19T52 37Q52 41 55 54T63 81T74 102Q89 90 115 82T181 73Q227 73 250 95T274 158Q274 187 262 209T218 263L106 377Q79 406 66 433T53 488Q53 549 96 583T218 617Q270 617 300 611T343 596T357
581Q357 573 353 556T337 525Q327 531 301 538T239 545Q195 545 169 533T142 489Q142 468 152 450T185 409L306 288Q336 258 349 227T363 157Q363 113 347 76T292 15T184 -8ZM163 -122V18H237V-90Q237 -111 219 -116T163 -122ZM181 569V704Q181 725 199 731T254
737V565L181 569Z" />
<glyph unicode="%" horiz-adv-x="691" d="M180 339Q135 339 105 353T60 407T44 525Q44 620 81 664T186 708Q231 708 260 692T304 637T319 526Q319 429 284 384T180 339ZM182 402Q200 402 214 413T236 451T244 525Q244 575 238 601T219 636T186 645Q157 645 140
620T122 523Q122 472 128 446T148 411T182 402ZM166 -8Q166 -8 159 -6T142 1T124 10T116 23L519 709Q519 709 531 705T554 692T565 674Q565 671 548 641T503 562T439 453T365 329T292 204T229 96T183 20T166 -8ZM508 -9Q463 -9 433 5T388 59T372 177Q372 272 409
316T514 360Q559 360 588 344T632 289T647 178Q647 81 612 36T508 -9ZM510 54Q528 54 542 65T564 103T572 177Q572 227 566 253T547 288T514 297Q485 297 468 272T450 175Q450 124 456 98T476 63T510 54Z" />
<glyph unicode="&amp;" horiz-adv-x="502" d="M435 -10Q426 -10 402 12T343 74T271 163T195 268T128 378T79 482T61 568Q61 613 80 644T137 690T228 706Q294 706 335 692T377 659Q377 644 372 627T357 599Q329 619 300 626T237 634Q212 634 192 629T159 608T146
558Q146 529 165 484T215 386T285 279T361 178T433 98T488 55Q486 39 477 24T456 0T435 -10ZM212 -10Q157 -10 121 5T64 45T35 103T26 170Q26 220 47 260T102 330T170 375L205 318Q177 304 156 284T123 236T110 168Q110 149 115 131T131 98T161 75T207 66Q248 66
274 83T316 127T339 185T348 244T350 291Q350 344 342 382T321 448T290 496Q309 500 331 501T373 503T405 504Q427 504 445 504T483 501Q483 500 484 491T485 471Q485 456 478 446T443 435L394 436Q402 423 410 405T423 358T429 281Q429 255 425 218T409 141T372
67T309 11T212 -10Z" />
<glyph unicode="&apos;" horiz-adv-x="141" d="M45 583Q45 586 43 606T38 655T33 712T31 760T34 782Q39 786 54 786T85 786T111 783Q111 763 109 731T104 666T96 611T90 586Q89 585 78 585T56 584T45 583Z" />
<glyph unicode="(" horiz-adv-x="292" d="M227 -195Q221 -195 203 -176T162 -118T116 -17T80 128T65 320Q65 420 80 498T117 634T162 729T204 785T226 803Q246 803 255 792T271 751Q249 722 227 681T187 587T159 469T148 323Q148 236 159 162T189 30T230 -71T271
-135Q266 -163 257 -179T227 -195Z" />
<glyph unicode=")" horiz-adv-x="292" d="M66 -195Q45 -195 36 -179T21 -135Q42 -108 63 -67T103 31T133 161T145 323Q145 397 135 462T107 582T68 679T21 751Q27 781 37 792T66 803Q70 803 88 786T129 732T175 638T212 501T227 320Q227 219 213 137T176 -7T131
-111T89 -174T66 -195Z" />
<glyph unicode="*" horiz-adv-x="470" d="M136 259Q127 246 113 251T86 272T66 300L187 423Q196 432 205 431T224 415L136 259ZM175 459L16 503Q16 527 25 543T47 566T69 569L199 487Q201 469 194 462T175 459ZM327 245L249 404Q244 414 248 420T271 434L386 299Q396
287 387 276T361 256T327 245ZM221 504L199 667Q197 682 211 686T244 688T278 677L258 519Q256 508 249 504T221 504ZM280 455Q268 472 269 480T282 495L430 575Q444 565 450 547T454 513T439 494L280 455Z" />
<glyph unicode="+" horiz-adv-x="418" d="M34 246Q34 285 36 301T51 317H384Q384 280 382 263T368 246H34ZM174 107V441Q174 453 190 455T245 457V123Q245 111 229 109T174 107Z" />
<glyph unicode="," horiz-adv-x="183" d="M70 -103Q59 -103 51 -98T38 -80Q55 -51 60 -34T67 6Q54 13 49 25T43 55Q43 77 57 92T94 107Q120 107 134 93T148 47Q148 20 139 -7T117 -55T90 -90T70 -103Z" />
<glyph unicode="-" horiz-adv-x="278" d="M37 246Q37 285 39 301T54 317H241Q241 280 239 263T225 246H37Z" />
<glyph unicode="." horiz-adv-x="183" d="M93 -6Q61 -6 49 9T37 51Q37 74 51 91T93 109Q124 109 136 93T149 51Q149 28 134 11T93 -6Z" />
<glyph unicode="/" horiz-adv-x="335" d="M10 -20L235 743Q238 753 243 757T267 763T325 765L100 0Q98 -9 92 -13T68 -19T10 -20Z" />
<glyph unicode="0" horiz-adv-x="418" d="M206 -9Q137 -9 99 26T45 129T29 296Q29 445 72 522T211 600Q308 600 348 530T389 320Q389 212 373 139T316 28T206 -9ZM208 65Q243 65 264 91T294 174T304 321Q304 423 286 475T215 528Q158 528 137 465T116 290Q116
208 124 159T153 87T208 65Z" />
<glyph unicode="1" horiz-adv-x="418" d="M30 0Q29 12 29 28T28 56Q28 62 37 65T61 70T95 74T134 75T172 76L184 517Q173 516 159 515T129 510T100 505T79 500T70 498Q64 509 61 523T57 551Q57 556 73 562T114 574T166 587T215 596T247 600Q253 600 260 599T270
595L257 76H331Q354 76 371 78T389 80Q389 38 387 19T373 0H30Z" />
<glyph unicode="2" horiz-adv-x="418" d="M32 0Q31 6 30 14T29 25Q29 46 34 59T53 96Q79 140 110 179T172 253T227 321T267 387T282 453Q282 475 275 490T251 514T205 522Q178 522 151 518T99 505T59 487Q53 503 51 520T49 547Q49 560 73 572T137 592T226 600Q284
600 316 584T361 538T374 464Q374 423 359 386T319 312T262 239T198 162T136 76H270Q291 76 311 77T349 80T377 83T388 84Q388 38 386 19T372 0H32Z" />
<glyph unicode="3" horiz-adv-x="418" d="M152 -100Q96 -100 70 -85T44 -51Q44 -30 48 -16T55 9Q72 -6 97 -14T153 -22Q197 -22 227 0T274 61T290 150Q290 182 277 202T242 234T191 249T131 253L130 305Q193 335 227 375T262 457Q262 472 258 487T238 512T190
522Q148 522 113 513T53 486Q45 502 44 519T43 546Q43 566 89 583T215 600Q269 600 299 584T341 540T354 481Q354 441 339 408T299 348T245 301Q282 297 312 281T359 234T377 152Q377 69 348 13T268 -71T152 -100Z" />
<glyph unicode="4" horiz-adv-x="418" d="M235 0V130H54Q39 145 34 165T28 202Q28 214 38 243T65 310T103 391T148 473T194 544T236 592Q245 599 254 602T273 606Q288 606 300 602T319 594L316 206Q345 206 367 207T390 209Q390 209 392 203T394 180Q393 161 387
146T367 130H316V26Q316 13 313 8T293 1T235 0ZM98 206H235L246 494Q228 473 206 439T163 363T124 281T98 206Z" />
<glyph unicode="5" horiz-adv-x="418" d="M148 -100Q88 -100 61 -85T34 -59Q34 -37 36 -23T43 7Q61 -8 84 -16T141 -24Q196 -24 229 5T277 80T293 177Q293 220 282 248T251 291T203 312T139 319Q107 319 81 314T42 305L71 600H377Q377 570 375 554T363 533T334
527Q327 527 310 527T270 528T226 529T184 530T152 531T140 531L125 381Q130 382 144 384T183 386Q212 387 246 381T310 356T360 298T379 194Q379 105 355 39T279 -64T148 -100Z" />
<glyph unicode="6" horiz-adv-x="418" d="M201 -8Q144 -8 110 14T58 77T36 177T31 308Q31 420 48 495T96 616T168 682T258 702Q286 702 311 699T351 689T367 668Q367 656 366 641T359 610Q340 617 317 621T265 625Q215 625 179 591T124 482T109 284Q108 225 113
184T131 116T161 77T205 64Q240 64 263 86T299 145T311 228Q311 294 289 329T222 364Q183 364 149 337T88 252V326Q111 383 148 411T246 439Q310 439 350 394T391 245Q391 117 343 55T201 -8Z" />
<glyph unicode="7" horiz-adv-x="418" d="M163 -88Q133 -88 115 -87T88 -80T80 -66Q88 -3 105 65T144 200T192 328T244 442T293 531Q275 529 242 528T164 527T67 527Q59 527 54 537T46 565T44 600H404Q343 481 294 366T211 138T163 -88Z" />
<glyph unicode="8" horiz-adv-x="418" d="M218 -8Q151 -8 110 18T51 87T32 184Q32 230 49 268T94 336T158 383L210 406Q238 423 261 443T298 487T312 541Q312 565 304 581T283 609T254 625T220 630Q193 630 170 620T134 591T120 539Q120 513 130 494T159 458Q176
441 207 420T273 375T332 323Q361 294 376 261T392 182Q392 129 373 86T315 18T218 -8ZM212 70Q258 70 285 100T313 184Q313 225 299 247T268 285Q242 312 207 335T137 381T80 429Q60 448 50 476T39 534Q39 592 62 630T124 687T209 706Q244 706 276 699T333 674T372
625T387 544Q387 498 369 463T323 404T266 360L219 337Q189 322 164 301T123 251T107 188Q107 134 135 102T212 70Z" />
<glyph unicode="9" horiz-adv-x="418" d="M138 -104Q102 -104 75 -97T48 -71Q48 -59 50 -43T56 -17Q73 -21 91 -24T128 -27Q185 -27 221 -1T276 71T303 178T311 310Q311 366 308 408T295 479T267 522T218 537Q167 537 137 495T107 368Q107 301 131 267T197 232Q236
232 270 258T331 340V267Q306 214 271 186T173 157Q132 157 99 180T47 247T28 358Q28 486 75 547T217 609Q271 609 304 593T355 541T380 444T389 297Q388 94 328 -5T138 -104Z" />
<glyph unicode=":" horiz-adv-x="183" d="M93 329Q62 329 50 344T37 386Q37 409 51 426T93 444Q124 444 136 428T149 386Q149 362 134 346T93 329ZM93 -6Q62 -6 50 9T37 51Q37 74 51 91T93 109Q124 109 136 93T149 51Q149 28 134 11T93 -6Z" />
<glyph unicode=";" horiz-adv-x="183" d="M66 -103Q55 -103 46 -98T34 -80Q51 -51 56 -34T62 6Q50 13 45 25T39 55Q39 77 53 92T89 107Q116 107 130 93T144 47Q144 20 135 -7T112 -55T86 -90T66 -103ZM91 329Q60 329 48 344T36 386Q36 409 50 426T91 444Q122 444
134 428T147 386Q147 362 133 346T91 329Z" />
<glyph unicode="&lt;" horiz-adv-x="400" d="M324 96Q315 96 297 103L52 211Q39 233 39 258Q39 272 45 283T65 302L329 430Q342 418 349 403T358 377Q358 359 343 352L145 255L360 159Q360 132 348 114T324 96Z" />
<glyph unicode="=" horiz-adv-x="418" d="M34 339Q34 378 36 394T51 410H384Q384 373 382 356T368 339H34ZM34 153Q34 192 36 208T51 224H384Q384 187 382 170T368 153H34Z" />
<glyph unicode="&gt;" horiz-adv-x="400" d="M74 85Q61 98 54 113T46 139Q46 157 60 164L259 261L43 357Q45 383 56 401T80 420Q88 420 107 413L351 305Q365 283 365 258Q365 244 359 233T338 214L74 85Z" />
<glyph unicode="?" horiz-adv-x="295" d="M93 209Q93 209 88 221T80 253T79 299T96 352Q112 382 129 406T162 453T186 499T196 551Q196 575 190 590T172 613T145 625T115 628Q82 628 61 619T31 603Q26 618 23 634T19 667Q19 680 38 689T86 704T144 710Q175 710
201 702T245 676T273 632T283 571Q283 525 271 491T241 430T205 379T172 331Q158 306 159 282T166 241T166 217Q162 212 149 210T120 207T93 209ZM130 -6Q99 -6 87 9T74 51Q74 74 88 91T130 109Q161 109 173 93T186 51Q186 28 172 11T130 -6Z" />
<glyph unicode="@" horiz-adv-x="738" d="M375 -190Q320 -190 271 -182T180 -148T110 -73T64 59T47 264Q47 375 72 454T142 584T252 658T394 682Q491 682 558 652T659 550T693 359Q693 261 682 196T653 92T613 34T570 8T532 2Q497 2 475 22T445 63L457 101Q470
88 488 80T523 72Q535 72 547 80T570 108T590 158T604 233T609 338Q609 439 590 498T523 584T392 610Q307 610 248 578T160 469T130 253Q130 163 140 100T169 -5T217 -69T284 -101T369 -111Q421 -111 462 -106T538 -90T601 -68Q610 -81 616 -96T623 -126Q623 -141
594 -155T508 -180T375 -190ZM368 62Q381 62 392 67T410 83T418 115L422 258Q417 259 408 260T387 261Q366 261 350 252T324 220T314 152Q314 116 320 97T338 70T368 62ZM362 1Q327 1 299 11T253 54T237 155Q238 220 255 255T302 304T364 318Q379 318 394 316T423
307Q423 307 423 327T424 368Q426 391 419 403T397 421T364 426Q333 426 310 421T264 402Q259 413 257 427T255 448Q256 460 264 468Q278 476 308 485T391 494Q445 494 474 470T501 378L496 177Q495 141 494 114T490 68Q489 53 484 43T475 30Q467 19 439 10T362
1Z" />
<glyph unicode="A" horiz-adv-x="437" d="M56 -2Q48 -2 34 -1T5 1L183 689Q186 703 214 703Q224 703 234 702T252 700L431 15Q433 7 427 3T396 -2Q387 -2 376 -2T348 0L254 394Q246 428 239 463T227 530T219 587Q217 563 212 531T199 463T183 394L94 14Q92 6 86
2T56 -2ZM108 178V252H347V178H108Z" />
<glyph unicode="B" horiz-adv-x="376" d="M43 0V681Q43 690 48 695T70 700H169Q199 700 229 694T283 671T322 624T337 545Q337 490 322 456T285 405T241 384Q258 383 278 377T317 355T347 311T359 238Q359 188 350 149T323 82T281 36T229 9T169 0H43ZM126 71H171Q190
71 206 80T236 108T256 158T264 231Q264 270 258 292T239 326T209 341T172 344H126V71ZM126 414H175Q196 414 212 426T238 464T248 530Q248 571 238 592T210 620T174 628H126V414Z" />
<glyph unicode="C" horiz-adv-x="341" d="M196 -10Q167 -10 142 -3T97 23T61 78T38 174T30 321Q30 424 41 493T73 605T118 671T172 702T227 710Q264 710 284 702T313 681T321 655Q321 641 317 628T308 606Q303 610 294 615T271 625T243 630Q224 630 206 624T171
599T142 546T123 458T115 325Q115 249 122 201T143 127T174 90T215 80Q244 80 269 90T307 111Q312 101 316 88T320 62Q320 43 305 27T261 0T196 -10Z" />
<glyph unicode="D" horiz-adv-x="387" d="M44 0V681Q44 690 49 695T71 700H168Q217 700 254 685T315 635T351 538T364 386Q364 276 351 202T313 83T251 20T169 0H44ZM125 77H170Q190 77 208 88T240 131T263 227T272 394Q272 463 266 508T247 579T215 615T171 625H125V77Z" />
<glyph unicode="E" horiz-adv-x="320" d="M44 0V684Q44 684 46 692T61 700H301Q301 667 300 652T296 632T286 627H125V73H297Q297 39 296 24T292 4T281 0H44ZM55 344V418H276Q276 372 274 358T261 344H55Z" />
<glyph unicode="F" horiz-adv-x="312" d="M44 0V684Q44 684 46 692T61 700H301Q301 667 300 653T296 634T286 630H125V16Q125 16 124 8T110 0H44ZM55 344V418H276Q276 372 274 358T261 344H55Z" />
<glyph unicode="G" horiz-adv-x="385" d="M218 -10Q168 -10 132 5T74 57T41 161T30 334Q30 452 45 525T88 639T155 695T245 710Q294 710 322 695T351 659Q351 645 348 632T341 606Q328 617 307 623T261 630Q223 630 196 616T151 569T125 480T117 340Q117 251 123
197T143 116T176 79T220 70Q238 70 250 74T269 84T279 94V343H205V394Q205 411 224 411H355V35Q343 25 325 15T280 -3T218 -10Z" />
<glyph unicode="H" horiz-adv-x="409" d="M284 0V684Q284 692 287 695T307 699T365 700V16Q365 8 362 5T342 1T284 0ZM44 0V684Q44 692 47 695T67 699T125 700V16Q125 8 122 5T102 1T44 0ZM84 339V415H321V339H84Z" />
<glyph unicode="I" horiz-adv-x="169" d="M43 0V663Q43 682 47 689T68 698T126 700V16Q126 8 122 5T102 1T43 0Z" />
<glyph unicode="J" horiz-adv-x="300" d="M119 -9Q79 -9 56 -1T24 21T14 50Q14 66 18 77T26 96Q40 84 62 74T109 63Q138 63 152 77T170 117T174 183V663Q174 682 177 689T198 698T256 700V165Q256 128 250 96T229 41T188 4T119 -9Z" />
<glyph unicode="K" horiz-adv-x="389" d="M334 -2Q320 -2 306 -1T277 1Q267 59 256 107T232 195T203 264T165 318Q152 331 137 339T106 351V365L283 695Q297 699 311 700T335 701Q380 701 368 677L207 398Q267 353 307 258T367 18Q368 7 362 3T334 -2ZM42 0V684Q42
692 45 695T66 699T124 700V16Q124 8 121 5T101 1T42 0Z" />
<glyph unicode="L" horiz-adv-x="314" d="M43 0V677Q43 688 47 693T68 699T125 700V76H297V16Q297 6 293 3T281 0H43Z" />
<glyph unicode="M" horiz-adv-x="489" d="M220 154L168 314Q165 322 159 346T143 402T124 469T106 533T93 581T87 600L119 700L214 397Q219 382 224 363T234 327T242 298T246 286Q246 286 248 297T255 326T265 362T275 395L363 684L399 596Q399 596 394 578T381
531T364 468T345 402T329 347T319 314L266 162Q263 154 255 154H220ZM43 0V684Q43 695 48 697T60 700H119L124 572L103 539Q103 539 104 525T107 488T111 434T116 371T120 306T122 248L124 16Q124 8 120 5T98 1T43 0ZM362 0L366 244Q366 270 367 302T371 368T376
433T380 490T383 530T384 545L363 564V684Q366 691 368 695T379 700Q412 700 426 700T442 700T445 700V16Q445 8 442 5T421 1T362 0Z" />
<glyph unicode="N" horiz-adv-x="444" d="M324 0L209 275Q203 291 193 320T170 387T146 461T123 531T106 582T100 602L54 652L60 700H122L234 430Q241 413 251 383T274 316T298 243T320 175T336 126T343 107L392 48L384 0H324ZM43 0V684Q43 700 60 700L124 684L113
567Q115 553 116 528T119 473T121 409T123 346T124 293T124 259V16Q124 8 121 5T101 1T43 0ZM384 0L320 16L329 150Q327 165 326 189T324 243T322 304T321 363T320 414T320 448V684Q320 692 323 695T344 699T401 700V16Q401 0 384 0Z" />
<glyph unicode="O" horiz-adv-x="429" d="M211 -10Q162 -10 128 6T72 64T40 175T30 354Q30 487 51 565T114 676T222 710Q270 710 304 693T359 635T389 527T399 357Q399 219 380 139T319 25T211 -10ZM214 74Q251 74 271 101T301 191T311 355Q311 455 303 514T276
600T220 626Q185 626 163 598T131 506T121 334Q121 241 129 184T158 101T214 74Z" />
<glyph unicode="P" horiz-adv-x="360" d="M71 284Q56 284 55 289T54 306V681Q54 684 54 692T66 700H159Q222 700 263 680T323 616T343 502Q343 440 329 399T289 332T230 296T160 284H71ZM43 0V684Q43 692 46 696T60 700H108Q120 700 122 692T124 684V16Q124 8
121 5T101 1T43 0ZM122 359H168Q196 359 214 374T243 422T253 512Q253 547 246 573T222 614T174 629H122V359Z" />
<glyph unicode="Q" horiz-adv-x="429" d="M320 -137Q267 -137 236 -104T187 4L279 23Q286 -28 298 -49T336 -70Q351 -70 367 -66T398 -53Q404 -62 407 -75T410 -97Q410 -112 395 -121T358 -133T320 -137ZM211 -10Q162 -10 128 6T72 64T40 175T30 354Q30 487 51
565T114 676T222 710Q270 710 304 693T359 635T389 527T399 357Q399 219 380 139T319 25T211 -10ZM214 74Q251 74 271 101T301 191T311 355Q311 455 303 514T276 600T220 626Q185 626 163 598T131 506T121 334Q121 241 129 184T158 101T214 74Z" />
<glyph unicode="R" horiz-adv-x="372" d="M71 284Q56 284 55 289T54 306V681Q54 684 54 692T66 700H159Q222 700 263 680T323 616T343 502Q343 440 329 399T289 332T230 296T160 284H71ZM43 0V684Q43 684 45 692T60 700H108Q120 700 122 692T124 684V16Q124 8
121 5T100 1T43 0ZM309 -2Q300 -2 288 -2T261 0Q256 86 241 144T208 237T177 287T164 302Q164 302 162 308T170 320L214 344Q226 344 231 335Q231 335 247 317T285 261T326 162T350 18Q350 7 344 3T309 -2ZM122 359H168Q196 359 214 373T243 420T253 506Q253 544
246 572T222 614T174 629H122V359Z" />
<glyph unicode="S" horiz-adv-x="358" d="M157 -10Q88 -10 57 9T25 50Q25 62 30 78T46 108Q62 93 87 83T149 73Q202 73 224 101T247 175Q247 209 235 238T189 305L89 422Q55 464 41 497T26 567Q26 630 70 670T198 710Q269 710 299 696T329 660Q329 650 324 638T309
614Q299 621 273 629T211 638Q166 638 140 620T113 569Q113 542 125 520T160 470L268 347Q307 301 321 263T335 178Q335 128 319 85T264 16T157 -10Z" />
<glyph unicode="T" horiz-adv-x="373" d="M144 0V688Q144 688 146 689T160 691H208Q221 691 223 690T225 688V16Q225 8 222 5T201 1T144 0ZM8 624V684Q8 700 25 700H365V640Q365 631 361 628T348 624H8Z" />
<glyph unicode="U" horiz-adv-x="437" d="M223 -10Q163 -10 127 7T73 53T49 122T43 204V683Q43 692 47 695T68 699T127 700V202Q127 172 130 147T143 103T173 75T223 65Q250 65 274 70T311 82V683Q311 692 315 695T336 699T393 700V26Q375 14 329 2T223 -10Z" />
<glyph unicode="V" horiz-adv-x="420" d="M194 -7Q175 -7 164 9T146 51Q136 92 122 153T93 285T62 425T34 551T15 642T7 676Q4 689 6 694T25 700H91L174 313Q183 269 190 225T203 141T214 69Q218 101 223 140T236 224T250 313L325 676Q327 688 330 694T346 700H416L262
-3Q246 -5 232 -6T194 -7Z" />
<glyph unicode="W" horiz-adv-x="654" d="M451 -8Q433 -8 423 7T407 49L356 274Q352 298 347 335T336 412T327 487T321 544T318 566L294 643Q291 656 295 661T311 666H365L435 313Q444 268 449 229T458 156T465 89H471Q474 136 480 196T496 313L560 676Q562 688
566 694T581 700H650L519 -3Q505 -4 496 -5T477 -7T451 -8ZM167 -7Q152 -7 142 10T126 55Q118 97 106 158T80 289T54 427T30 552T13 642T7 676Q4 689 7 694T24 700H91L163 313Q171 268 176 229T186 155T193 88H199Q202 148 208 203T225 313L286 642Q288 655 291
660T307 666H342Q358 666 359 660T359 643L332 565Q332 565 330 543T323 487T315 413T305 336T296 275L241 -3Q223 -5 208 -6T167 -7Z" />
<glyph unicode="X" horiz-adv-x="424" d="M9 0L170 382L214 411Q214 411 221 437T242 505T271 587L309 687Q312 693 315 696T337 699T397 700L251 325L218 315Q218 315 209 288T185 219T152 135L97 10Q91 0 79 0H9ZM315 0L260 135Q244 177 230 218T206 287T196
315L169 343L36 686Q33 693 37 696T63 699T131 700L172 587Q188 545 200 505T221 438T229 411L257 394L411 14Q415 8 413 4T403 0H315Z" />
<glyph unicode="Y" horiz-adv-x="364" d="M207 234L161 235L6 687Q4 694 7 696T31 699T98 700L138 563Q145 539 153 508T169 445T181 390T187 354Q188 365 193 389T205 445T221 507T237 563L272 685Q274 693 278 696T301 699T360 700L207 234ZM144 0V342H225V16Q225
8 222 5T202 1T144 0Z" />
<glyph unicode="Z" horiz-adv-x="385" d="M32 0Q27 5 23 13T19 32Q19 41 21 49T27 68L266 627H80Q67 627 55 627T36 624V683Q36 700 53 700H352Q356 695 358 689T360 673Q360 656 352 637L109 73H302Q319 73 334 74T361 80V16Q361 9 358 5T344 0H32Z" />
<glyph unicode="[" horiz-adv-x="385" d="M121 -199V796Q121 807 124 812T140 819T184 821H376Q376 788 375 772T369 751T349 746H203V-123H375Q375 -160 374 -176T366 -195T348 -199H121Z" />
<glyph unicode="\" horiz-adv-x="329" d="M237 -30L12 743Q9 753 12 757T33 763T91 765L318 -10Q321 -19 317 -23T295 -29T237 -30Z" />
<glyph unicode="]" horiz-adv-x="385" d="M9 -200Q9 -167 10 -151T18 -130T36 -125H182V746H10Q10 784 12 799T20 818T37 822H264V-175Q264 -185 261 -190T245 -198T202 -200H9Z" />
<glyph unicode="^" horiz-adv-x="430" d="M85 208Q68 208 59 221T48 249L221 398L366 270Q374 264 377 258T380 244Q380 230 369 219T341 206L212 293L110 218Q101 212 95 210T85 208Z" />
<glyph unicode="_" horiz-adv-x="377" d="M14 -109Q14 -71 16 -55T30 -38H364Q364 -75 362 -92T347 -109H14Z" />
<glyph unicode="`" horiz-adv-x="269" d="M189 553Q177 560 156 574T112 604T73 634T49 655Q52 673 62 694T87 716Q90 716 104 705T139 677T181 639T220 598Q220 598 217 587T206 565T189 553Z" />
<glyph unicode="a" horiz-adv-x="354" d="M172 -10Q144 -10 119 -6T73 14T41 60T29 142Q29 194 40 226T70 276T113 300T162 306Q178 306 199 303T236 293Q236 293 236 307T236 339T236 372Q236 396 229 408T208 426T174 432Q135 432 99 425T41 409Q34 421 32 433T30
456Q30 463 32 471T41 483Q54 491 95 500T193 510Q258 510 287 483T317 388V335Q317 278 317 221T315 113T311 24Q291 12 256 1T172 -10ZM180 58Q196 58 211 63T232 75Q234 91 234 119T235 178T236 236Q226 241 213 243T189 245Q173 245 160 242T136 228T120 197T114
144Q114 117 118 100T132 74T153 61T180 58Z" />
<glyph unicode="b" horiz-adv-x="385" d="M164 -10Q124 -10 95 -2T47 20V697Q47 716 53 724T77 733T128 735V475Q149 491 174 500T235 510Q275 510 302 491T343 429T357 313Q357 227 346 168T314 74T268 21T216 -4T164 -10ZM175 62Q188 62 204 70T234 102T257
172T267 295Q267 349 259 380T237 424T198 437Q179 437 162 431T128 409V75Q135 70 146 66T175 62Z" />
<glyph unicode="c" horiz-adv-x="312" d="M180 -10Q143 -10 116 -1T69 35T41 111T31 239Q31 329 47 383T89 464T147 501T210 510Q245 510 269 498T293 465Q293 457 292 445T285 420Q273 427 254 432T214 438Q197 438 180 432T147 405T124 345T115 239Q115 186
120 152T137 98T165 70T204 62Q228 62 249 69T284 85Q288 72 289 62T291 41Q291 20 260 5T180 -10Z" />
<glyph unicode="d" horiz-adv-x="381" d="M193 -10Q160 -10 131 -3T79 29T44 102T31 232Q31 331 51 392T106 482T184 510Q207 510 225 505T255 490V698Q255 717 261 724T286 733T336 735V20Q312 8 276 -1T193 -10ZM196 63Q213 63 228 66T255 78V426Q246 434 236
436T209 439Q193 439 177 431T148 402T128 342T121 241Q121 184 126 149T141 96T164 70T196 63Z" />
<glyph unicode="e" horiz-adv-x="360" d="M189 -10Q155 -10 126 -1T75 34T42 105T30 224Q30 318 45 375T85 461T142 500T207 510Q270 510 302 470T334 349Q334 316 332 281T322 219Q288 212 246 209T166 205T104 203T79 203L80 269Q80 269 99 269T145 268T201
271T250 280Q253 294 254 310T255 340Q254 394 243 416T198 439Q181 439 166 430T138 397T120 332T113 227Q113 180 118 149T135 101T164 77T207 69Q237 69 266 77T320 100Q325 88 326 73T328 45Q328 30 309 17T259 -3T189 -10Z" />
<glyph unicode="f" horiz-adv-x="255" d="M81 0V431H12Q12 464 13 478T18 496T33 500H81V561Q81 619 96 654T137 707T191 732T249 739Q295 739 318 728T342 698Q342 688 340 676T333 653Q315 661 297 663T262 665Q242 665 225 662T193 649T170 619T162 567V500H252Q252
468 251 454T247 435T235 431H162V16Q162 15 160 8T146 0H81Z" />
<glyph unicode="g" horiz-adv-x="393" d="M183 -197Q116 -197 81 -180T34 -138T22 -88Q22 -53 42 -24T92 28T157 61L187 37Q168 29 149 12T118 -26T106 -69Q106 -84 112 -96T137 -115T190 -122Q244 -122 268 -97T292 -45Q292 -22 282 -10T248 9T179 19Q137 23
105 31T55 53T37 87Q38 103 48 120T76 156T120 192L170 175Q164 171 153 161T133 138T124 114Q124 101 158 95T242 83Q281 77 311 65T357 29T374 -34Q374 -77 354 -114T292 -174T183 -197ZM195 154Q135 154 101 177T53 239T39 327Q39 393 60 433T119 492T206 510Q217
510 233 507T264 499L281 463Q316 449 336 416T357 329Q357 276 341 237T289 176T195 154ZM199 216Q226 216 242 231T267 275T275 348Q275 403 257 426T202 450Q181 450 163 439T135 401T125 329Q125 294 130 269T152 230T199 216ZM355 432Q340 432 319 437T277
449T243 461T229 466L220 502H375Q378 497 380 488T383 464Q383 447 376 440T355 432Z" />
<glyph unicode="h" horiz-adv-x="380" d="M45 0V698Q45 717 51 724T75 733T126 735V471Q149 491 179 500T238 510Q281 510 303 495T334 450T342 378V16Q342 8 338 5T316 1T259 0V356Q259 389 249 412T201 435Q184 435 164 429T126 407V16Q126 8 123 5T102 1T45 0Z" />
<glyph unicode="i" horiz-adv-x="175" d="M46 0V463Q46 482 53 489T78 498T129 500V16Q129 8 126 5T105 1T46 0ZM341 569Q322 570 311 583T300 632Q301 659 312 675T347 692Q370 692 379 679T387 634Q387 604 376 587T341 569Z" />
<glyph unicode="j" horiz-adv-x="184" d="M4 -196Q-52 -196 -77 -182T-102 -143Q-102 -132 -100 -121T-91 -101Q-74 -110 -53 -115T-6 -121Q20 -121 32 -111T49 -80T54 -23V463Q54 482 60 489T84 498T135 500V-36Q135 -80 125 -116T86 -174T4 -196ZM346 569Q327
570 316 583T305 632Q306 659 317 675T352 692Q375 692 384 679T392 634Q392 604 381 587T346 569Z" />
<glyph unicode="k" horiz-adv-x="376" d="M46 0V698Q46 717 52 724T77 733T128 735V464Q153 485 187 497T253 510Q286 510 304 498T330 467T338 424Q338 392 329 367T306 323T279 290T255 269Q279 259 300 237T335 180T354 100Q356 82 356 61T352 16Q351 8 347
5T325 1T260 0Q264 37 264 67T260 123Q255 153 246 174T225 207T200 224T172 226Q163 224 153 220T135 211T128 207V16Q128 8 125 5T105 1T46 0ZM128 265Q163 280 190 298T232 340T248 396Q248 437 211 437Q190 437 169 426T128 389V265Z" />
<glyph unicode="l" horiz-adv-x="173" d="M46 0V698Q46 717 52 724T77 733T127 735V16Q127 8 124 5T104 1T46 0Z" />
<glyph unicode="m" horiz-adv-x="563" d="M46 0V477Q79 492 117 501T197 510Q256 510 283 484T317 410T325 295V16Q325 8 321 5T300 1T244 0V372Q244 397 242 411T229 432T195 439Q178 439 162 435T127 422V16Q127 8 123 5T103 1T46 0ZM244 0V436Q253 458 279
474T341 500T410 510Q460 510 484 494T515 446T522 369V16Q522 8 518 5T497 1T441 0V370Q441 406 432 422T392 438Q376 438 359 434T325 419V16Q325 8 322 5T302 1T244 0Z" />
<glyph unicode="n" horiz-adv-x="382" d="M45 0V476Q65 485 92 492T148 505T204 510Q256 510 287 497T331 454T344 376V16Q344 8 340 5T319 1T260 0V352Q260 399 249 419T201 439Q184 439 163 435T126 421V16Q126 8 123 5T102 1T45 0Z" />
<glyph unicode="o" horiz-adv-x="376" d="M184 -10Q146 -10 117 -1T67 36T37 114T27 250Q27 387 71 448T193 510Q246 510 280 488T332 410T349 253Q349 113 307 52T184 -10ZM186 59Q208 59 224 74T251 132T261 252Q261 332 253 372T230 427T190 441Q168 441 151
426T125 368T115 248Q115 187 120 149T133 92T156 66T186 59Z" />
<glyph unicode="p" horiz-adv-x="382" d="M85 -197Q64 -197 55 -190T46 -162V470Q76 489 114 499T192 510Q242 510 278 493T335 430T355 302Q355 222 346 167T322 76T288 23T248 -3T206 -10Q179 -10 159 -2T127 18V-190Q117 -193 106 -195T85 -197ZM181 63Q193
63 207 70T234 100T256 169T265 293Q265 353 257 384T231 427T188 439Q154 439 127 420V96Q138 78 152 71T181 63Z" />
<glyph unicode="q" horiz-adv-x="387" d="M294 -198Q285 -198 277 -197T260 -195V34Q246 13 222 2T165 -10Q141 -10 118 -2T74 30T42 99T30 218Q30 301 46 357T90 446T155 495T235 510Q269 510 294 503T342 479V-163Q342 -186 334 -191T294 -198ZM194 61Q214 61
232 74T260 112V425Q253 432 242 435T214 439Q185 439 165 419T133 350T122 220Q122 169 128 138T144 90T168 67T194 61Z" />
<glyph unicode="r" horiz-adv-x="263" d="M45 0V465Q74 486 109 498T181 510Q220 510 235 500T251 468Q251 460 249 447T242 420Q231 426 219 429T194 432Q177 432 160 427T128 410L127 16Q127 8 124 5T103 1T45 0Z" />
<glyph unicode="s" horiz-adv-x="345" d="M152 -10Q99 -10 65 2T30 41Q30 50 33 62T44 88Q66 75 90 69T144 63Q182 63 203 78T225 125Q225 145 217 164T185 203L88 286Q54 314 43 340T31 392Q31 427 48 453T102 495T194 510Q246 510 272 500T309 478T320 454Q320
433 302 413Q280 427 256 433T204 439Q168 439 147 427T125 391Q125 378 132 364T165 329L258 254Q291 223 304 195T317 129Q317 63 273 27T152 -10Z" />
<glyph unicode="t" horiz-adv-x="291" d="M182 -10Q140 -10 120 8T93 60T87 139V430H19Q19 462 19 476T24 495T36 500H87V652Q87 667 93 672T117 679T168 680V500H270Q270 469 270 454T266 435T254 430H168V139Q168 118 169 100T178 71T204 60Q221 60 234 63T262
75Q264 67 266 57T268 34Q268 16 255 7T222 -6T182 -10Z" />
<glyph unicode="u" horiz-adv-x="389" d="M194 -10Q134 -10 102 8T58 63T45 156V484Q45 492 48 495T68 499T128 500V149Q128 117 133 98T153 70T195 61Q209 61 228 65T263 79V484Q263 492 266 495T286 499T344 500V26Q315 10 275 0T194 -10Z" />
<glyph unicode="v" horiz-adv-x="344" d="M156 -6Q141 -6 134 8T120 43L18 475Q16 488 19 493T41 499T105 500L137 340Q144 301 151 257T164 175T173 112T176 87H178Q178 87 181 111T189 174T201 257T216 340L243 482Q245 491 248 494T269 499T328 500L213 -3Q202
-5 184 -5T156 -6Z" />
<glyph unicode="w" horiz-adv-x="540" d="M366 -6Q355 -6 342 6T323 46L310 113Q302 151 296 192T284 272T276 342T271 393T269 412L257 458Q256 465 260 475T274 486H314L353 276Q360 248 365 216T375 156T381 111T384 93H389Q392 124 396 165T407 252T420 337L446
482Q447 491 451 494T472 499T526 500Q526 500 521 473T506 401T485 302T463 195T441 96T425 24T418 -3Q418 -3 405 -4T366 -6ZM147 -6Q134 -6 126 8T112 43Q105 74 95 117T75 210T54 308T35 396T21 459T16 483Q15 492 19 495T43 499T104 500L134 337Q142 295 148
252T159 173T166 115T169 93H175Q177 111 181 142T192 210T203 278L234 469Q236 480 241 483T261 486H283Q293 486 292 481T287 470T281 458L279 413Q279 413 277 395T272 344T263 272T252 192T237 113L215 -3Q215 -3 203 -3T176 -5T147 -6Z" />
<glyph unicode="x" horiz-adv-x="410" d="M15 0L165 276L205 305Q205 305 214 326T238 377T265 432L296 486Q299 493 304 496T326 499T386 500L239 233L209 223Q209 223 202 208T185 168T161 116T136 65L107 16Q104 8 97 5T72 1T15 0ZM301 0L264 66Q251 88 239
115T215 166T196 206T189 222L171 234L35 487Q32 493 34 495T56 499T120 500L157 432Q170 407 184 378T207 327T216 305L246 288L391 19Q396 10 394 6T371 1T301 0Z" />
<glyph unicode="y" horiz-adv-x="356" d="M77 -193Q33 -193 15 -182T-4 -154Q-4 -142 -1 -129T8 -108Q18 -115 36 -119T71 -124Q95 -124 114 -101T144 -16L24 478Q21 489 23 493T43 499T103 500L157 261Q163 231 168 200T176 143T181 100T184 84Q184 84 185 100T190
142T198 200T208 262L253 476Q255 489 259 493T281 499T340 500L217 -27Q202 -90 184 -126T140 -178T77 -193Z" />
<glyph unicode="z" horiz-adv-x="335" d="M34 0Q34 0 28 9T21 40Q21 49 22 56T27 71L222 431H119Q91 431 68 430T28 427Q26 439 26 449T25 465Q25 483 31 491T51 500H305Q305 500 309 494T314 475Q314 469 312 460T304 435L116 75H204Q246 75 270 78T309 86Q311
79 311 68T312 50Q311 25 306 13T280 0H34Z" />
<glyph unicode="{" horiz-adv-x="277" d="M227 -150Q152 -150 121 -116T89 -15Q89 37 96 82T103 182Q103 221 89 238T48 260Q44 268 43 277T41 293Q41 322 58 334Q71 342 81 351T97 377T103 427Q103 480 96 531T89 626Q89 668 109 693T164 731T244 744Q252 733
256 720T260 694Q260 668 245 665Q221 664 205 655T180 628T172 585Q172 548 177 502T182 402Q182 353 167 332T128 300Q154 290 168 270T182 205Q182 152 177 107T172 22Q172 -16 181 -36T208 -64T253 -75Q254 -85 254 -92T255 -106Q255 -126 248 -138T227 -150Z"
/>
<glyph unicode="|" horiz-adv-x="324" d="M121 -200V793Q121 804 125 808T146 814T203 815V-180Q203 -190 199 -194T178 -199T121 -200Z" />
<glyph unicode="}" horiz-adv-x="277" d="M33 -150Q26 -139 22 -126T18 -99Q18 -74 33 -72Q56 -69 72 -60T97 -34T105 9Q105 46 100 92T95 191Q95 241 109 262T148 294Q124 304 110 324T95 389Q95 443 100 487T105 572Q105 610 96 629T69 657T25 670Q23 679 22
686T21 700Q21 720 29 732T50 744Q125 744 156 710T188 609Q188 558 181 513T174 412Q174 372 188 356T229 334Q233 325 234 317T236 301Q236 286 231 276T218 261Q206 252 196 243T180 217T174 167Q174 113 181 63T188 -32Q188 -74 168 -100T113 -138T33 -150Z"
/>
<glyph unicode="~" horiz-adv-x="400" d="M263 212Q237 212 220 218T190 234T164 249T132 256Q113 256 98 247T70 229T46 218Q33 217 23 230T11 266Q20 280 38 294T83 319T140 329Q166 329 181 323T209 308T235 293T270 286Q291 286 309 296T340 321Q359 333 374
319T391 276Q382 263 364 248T321 223T263 212Z" />
<glyph unicode="&#xa0;" horiz-adv-x="158" />
<glyph unicode="&#xa1;" horiz-adv-x="195" d="M44 -197L61 255Q62 273 69 281T94 291T142 293L155 -174Q156 -184 148 -189T115 -195T44 -197ZM102 393Q72 393 59 409T46 451Q46 475 61 491T102 508Q133 508 145 493T158 451Q158 428 144 411T102 393Z" />
<glyph unicode="&#xa2;" horiz-adv-x="418" d="M248 -10Q210 -10 180 -5T128 23T95 94T83 228Q83 320 99 375T141 460T199 499T262 510Q292 510 318 499T345 475Q345 473 345 463T342 440T336 417Q323 424 307 429T269 434Q251 434 232 428T198 402T173 341T164
231Q164 173 169 140T187 90T216 70T257 65Q277 65 299 72T335 88Q339 77 341 62T343 37Q343 27 330 16T295 -2T248 -10ZM189 -133V13H263V-101Q263 -122 245 -127T189 -133ZM213 495V591Q213 612 231 618T286 625V495H213Z" />
<glyph unicode="&#xa3;" horiz-adv-x="366" d="M89 0Q85 54 83 109T79 219T77 321Q77 398 88 450T120 535T171 581T238 595Q264 595 286 589T323 572T338 542Q338 529 336 518T327 492Q311 503 294 508T256 513Q234 513 217 506T186 479T166 424T158 333Q158 260
160 200T166 80L322 74Q326 64 327 55T328 37Q328 24 321 16T303 4T277 0H89ZM15 277Q15 315 17 331T31 348H288Q288 310 286 294T272 277H15Z" />
<glyph unicode="&#xa4;" horiz-adv-x="572" d="M286 52Q184 52 136 106T87 276Q87 394 136 449T291 505Q391 505 437 452T484 286Q484 166 436 109T286 52ZM62 -2Q35 25 25 38T23 60L135 171L173 109L62 -2ZM132 377L12 496Q38 523 51 533T73 535L170 439L132
377ZM498 10L402 107L442 166L560 49Q533 22 520 12T498 10ZM288 121Q348 121 377 161T407 288Q407 365 379 401T295 438Q230 438 199 397T168 271Q168 194 197 158T288 121ZM444 379L405 442L510 547Q537 520 547 507T549 485L444 379Z" />
<glyph unicode="&#xa5;" horiz-adv-x="418" d="M185 235L30 687Q29 694 32 696T55 699T122 700L161 563Q169 539 177 511T192 455T204 406T209 373Q211 384 215 406T227 455T243 510T259 563L296 685Q299 693 303 696T325 699T384 700L231 234L185 235ZM38 176Q38
213 43 228T70 244H186V176H38ZM168 0V342H249V16Q249 8 246 5T226 1T168 0ZM38 341Q38 378 43 393T70 409H167V341H38ZM231 176V244H379Q379 207 374 192T347 176H231ZM242 341V409H378Q378 372 373 357T347 341H242Z" />
<glyph unicode="&#xa6;" horiz-adv-x="227" d="M112 -198Q106 -198 95 -197T73 -193V192Q73 211 82 218T115 225Q124 225 134 224T154 219V-169Q154 -187 146 -192T112 -198ZM112 326Q106 326 95 327T73 330V711Q73 729 82 736T115 743Q124 743 134 742T154 737V354Q154
337 146 332T112 326Z" />
<glyph unicode="&#xa7;" horiz-adv-x="348" d="M213 191L191 263Q211 270 223 287T235 318Q235 338 228 352T206 384Q193 402 171 419T125 455T83 498Q63 524 55 543T46 587Q46 624 66 649T120 689T197 703Q246 703 272 689T304 661Q307 653 307 644Q307 631 303
618T291 594Q275 606 256 611T210 617Q175 617 157 604T138 571Q138 556 145 544T168 515Q180 501 199 483T240 443T275 403Q293 381 302 361T311 312Q311 292 302 269T271 224T213 191ZM149 -4Q101 -4 75 10T43 39Q41 43 41 47T40 55Q40 82 56 105Q72 94 91 88T136
82Q172 82 190 95T208 128Q208 144 201 156T178 185Q166 198 147 217T107 256T71 296Q54 318 45 339T35 388Q35 408 44 431T75 475T131 508L153 435Q133 429 122 412T111 382Q111 363 119 348T141 315Q153 298 175 281T222 244T264 201Q284 176 292 157T301 112Q301
76 281 50T227 10T149 -4Z" />
<glyph unicode="&#xa8;" horiz-adv-x="269" d="M73 572Q54 572 44 585T34 632Q34 658 44 673T78 689Q100 689 109 677T117 634Q117 604 106 588T73 572ZM192 572Q173 572 163 585T152 632Q153 658 164 673T197 689Q220 689 228 677T236 634Q236 604 225 588T192 572Z" />
<glyph unicode="&#xa9;" horiz-adv-x="472" d="M234 320Q185 320 148 331T86 369T49 437T36 541Q36 655 90 707T242 760Q308 760 351 739T415 671T436 543Q436 436 384 378T234 320ZM243 417Q214 417 195 424T167 455T157 531Q157 577 165 604T188 645T218 663T249
668Q264 668 279 663T294 652Q294 648 292 637T288 620Q281 623 273 625T254 628Q243 628 231 622T212 596T204 530Q204 496 209 481T223 462T248 457Q258 457 268 460T286 467Q289 461 291 451T293 438Q293 430 278 424T243 417ZM232 379Q272 379 304 395T355
447T375 544Q375 601 360 636T316 688T241 705Q177 705 137 669T97 541Q97 479 113 444T159 394T232 379Z" />
<glyph unicode="&#xaa;" horiz-adv-x="322" d="M154 288Q124 288 98 296T57 330T41 411Q41 459 55 486T93 523T150 534Q167 534 184 531T214 524V581Q214 607 205 619T182 635T152 639Q124 639 100 632T57 617Q49 627 47 646T52 675Q66 690 96 700T176 710Q207
710 230 700T268 667T282 608V317Q263 308 228 298T154 288ZM164 346Q178 346 192 350T214 358V468Q205 471 193 473T172 476Q153 476 138 472T115 454T106 409Q106 384 113 371T134 352T164 346Z" />
<glyph unicode="&#xab;" horiz-adv-x="416" d="M166 0Q166 0 156 16T128 57T92 113T57 171T29 222T18 252Q18 261 28 282T55 332T90 389T125 444T153 484T164 500Q180 500 190 490T206 470T212 459Q212 449 204 431T182 389T153 342T125 298T103 265T94 252Q94
252 102 240T125 208T154 164T183 117T205 75T214 47Q214 47 209 35T193 12T166 0ZM337 25Q337 25 327 39T299 75T264 124T228 177T201 222T190 251Q190 259 200 278T227 323T262 376T296 426T323 463T334 477Q349 477 359 468T375 449T381 439Q381 428 370 406T341
357T307 307T279 267T267 251Q267 251 279 236T308 198T342 149T371 102T383 69Q383 69 378 58T362 36T337 25Z" />
<glyph unicode="&#xac;" horiz-adv-x="400" d="M40 232Q34 251 34 270Q34 286 40 297T60 309H358V232H40ZM321 104Q305 104 293 111T281 131V309H358V111Q340 104 321 104Z" />
<glyph unicode="&#xad;" horiz-adv-x="278" d="M37 246Q37 285 39 301T54 317H241Q241 280 239 263T225 246H37Z" />
<glyph unicode="&#xae;" horiz-adv-x="472" d="M234 320Q185 320 148 331T86 369T49 437T36 541Q36 655 90 707T242 760Q308 760 351 739T415 671T436 543Q436 436 384 378T234 320ZM176 417V665Q176 665 177 667T183 670H203Q208 670 211 668T214 665V425Q214
419 208 418T176 417ZM274 417Q270 464 260 486T240 516T230 524Q230 524 229 526T232 530L251 541Q254 541 257 541T262 539Q262 539 274 530T298 496T315 426Q315 421 313 419T299 416Q295 416 288 416T274 417ZM232 379Q272 379 304 395T355 447T375 544Q375
601 360 636T316 688T241 705Q177 705 137 669T97 541Q97 479 113 444T159 394T232 379ZM230 551Q248 551 258 562T268 600Q268 617 260 627T232 637Q221 637 216 637T210 637V552Q210 552 214 552T224 552T230 551ZM189 517Q182 517 182 519T181 526V664Q181 665
181 667T186 670H227Q269 670 288 651T308 597Q308 557 285 537T228 517H189Z" />
<glyph unicode="&#xaf;" horiz-adv-x="269" d="M6 587Q3 597 2 606T1 624Q1 641 9 652T34 664H261Q265 654 267 646T269 629Q268 610 260 599T238 587H6Z" />
<glyph unicode="&#xb0;" horiz-adv-x="358" d="M177 552Q132 552 108 571T83 649Q83 700 110 723T183 746Q231 746 253 726T276 650Q276 601 251 577T177 552ZM178 604Q198 604 210 614T223 650Q223 674 213 684T184 694Q162 694 150 684T138 648Q138 625 148
615T178 604Z" />
<glyph unicode="&#xb1;" horiz-adv-x="419" d="M35 289Q35 328 37 344T52 360H385Q385 323 383 306T369 289H35ZM175 150V484Q175 496 191 498T246 500V166Q246 154 230 152T175 150ZM34 14Q34 53 36 69T51 85H384Q384 48 382 31T368 14H34Z" />
<glyph unicode="&#xb2;" horiz-adv-x="384" d="M46 289Q43 297 42 303T40 316Q40 328 43 339T53 358Q83 393 114 422T172 477T215 526T231 575Q231 590 226 601T208 620T167 628Q136 628 112 616T66 590Q56 607 54 617T51 639Q51 658 74 674T134 700T205 710Q254
710 281 697T319 660T330 604Q330 568 313 536T269 475T214 418T162 365H338Q343 344 343 330Q343 289 317 289H46Z" />
<glyph unicode="&#xb3;" horiz-adv-x="384" d="M164 279Q123 279 96 287T57 305Q44 314 44 335Q44 362 64 379Q80 369 103 362T161 354Q204 354 230 370T256 416Q256 438 241 452T199 470Q185 472 165 472T128 473Q125 476 122 489T118 510Q118 520 123 527T144
535Q173 535 200 532T247 524Q290 515 314 487T339 423Q339 373 316 341T254 294T164 279ZM258 505L182 523Q211 541 223 557T235 593Q235 604 229 614T209 630T171 637Q140 637 114 628T67 604Q52 620 51 641T60 671Q77 686 113 698T204 710Q248 710 274 699T313
667T325 620Q325 589 309 559T258 505Z" />
<glyph unicode="&#xb4;" horiz-adv-x="271" d="M81 560Q72 560 65 571T54 593T50 605Q67 624 88 644T131 683T166 711T184 722Q198 722 208 701T221 661Q216 654 198 641T158 611T115 581T81 560Z" />
<glyph unicode="&#xb5;" horiz-adv-x="395" d="M80 -195Q71 -195 62 -194T45 -190V470Q45 488 54 496T86 505Q94 505 105 504T125 500V131Q125 97 144 82T195 66Q218 66 236 70T268 81V470Q268 488 275 496T308 505Q315 505 327 504T349 500V24Q320 11 279 1T194
-10Q146 -10 125 15V-163Q125 -182 112 -188T80 -195Z" />
<glyph unicode="&#xb6;" horiz-adv-x="541" d="M312 -3Q298 -3 288 -1T271 3V205Q256 197 234 194T191 190Q160 190 132 201T81 237T46 307T33 420Q33 523 58 586T127 680T231 710Q269 710 299 702T352 682V26Q352 7 340 2T312 -3ZM211 256Q223 255 240 258T270
270V630Q264 633 252 636T219 640Q170 640 144 587T117 428Q117 357 131 320T166 270T211 256ZM453 -3Q447 -3 436 -2T414 2V658Q414 676 423 683T456 690Q465 690 475 689T495 684V26Q495 8 487 3T453 -3Z" />
<glyph unicode="&#xb7;" horiz-adv-x="221" d="M109 212Q78 212 66 227T53 269Q53 292 67 309T109 327Q140 327 152 311T165 269Q165 245 150 229T109 212Z" />
<glyph unicode="&#xb8;" horiz-adv-x="269" d="M126 -206Q104 -206 87 -200T70 -194Q70 -194 72 -185T77 -166T83 -153Q88 -148 100 -155T128 -163Q144 -163 151 -154T159 -129Q159 -110 151 -103T129 -96Q110 -96 99 -98T88 -101L107 2H152L140 -59Q140 -59 140
-59T157 -58Q176 -58 191 -72T207 -122Q207 -148 197 -167T168 -196T126 -206Z" />
<glyph unicode="&#xb9;" horiz-adv-x="382" d="M49 289Q46 300 45 309T44 324Q44 344 50 354T72 365H165V621L58 600Q53 608 50 618T47 638Q47 653 55 662T74 676Q97 684 127 692T184 705T222 710Q227 710 235 710T247 707V365H334Q335 356 336 347T337 329Q337
308 332 299T313 289H49Z" />
<glyph unicode="&#xba;" horiz-adv-x="338" d="M165 289Q124 289 95 306T51 370T35 499Q35 610 73 660T174 710Q218 710 246 693T289 630T303 501Q303 393 268 341T165 289ZM166 356Q198 356 216 388T235 499Q235 555 228 585T208 626T174 638Q142 638 123 607T104
494Q104 439 111 409T132 367T166 356Z" />
<glyph unicode="&#xbb;" horiz-adv-x="414" d="M248 0Q248 0 241 2T224 10T207 25T200 47Q200 56 208 74T231 116T260 163T289 207T311 240T320 252Q320 252 312 264T290 297T261 342T233 389T211 430T202 459Q202 470 209 477T226 490T243 497T251 500Q251 500
261 485T288 444T323 390T358 332T385 283T396 252Q396 244 386 222T358 172T322 113T287 58T259 16T248 0ZM76 22Q76 22 65 26T43 41T32 69Q32 80 44 101T73 148T107 197T136 235T148 250Q150 250 139 265T111 305T77 356T47 405T35 439Q35 454 45 463T67 476T79
480Q79 480 89 466T116 429T151 378T186 325T213 279T224 250Q224 241 213 221T186 175T150 122T115 73T87 36T76 22Z" />
<glyph unicode="&#xbc;" horiz-adv-x="959" d="M45 289Q43 300 42 309T41 324Q41 344 46 354T68 365H162V621L54 600Q49 608 47 618T44 638Q44 653 51 662T70 676Q94 684 124 692T181 705T219 710Q224 710 232 710T244 707V365H330Q332 356 333 347T334 329Q334
308 329 299T309 289H45ZM338 -10Q326 -10 310 -3T281 19L616 691Q619 699 625 704T644 710Q657 710 671 704T699 681L362 5Q360 0 354 -5T338 -10ZM825 -6Q810 -6 792 -2V70H621Q614 78 611 88T607 110Q607 123 614 143Q623 174 639 208T677 276T720 340T763 390Q781
410 798 415T834 421Q843 421 852 420T868 416V147H927Q930 140 932 131T934 109Q934 92 927 81T909 70H868V19Q868 -6 825 -6ZM682 142H794L798 328Q782 316 765 295T731 247T702 194T682 142Z" />
<glyph unicode="&#xbd;" horiz-adv-x="947" d="M45 289Q43 300 42 309T41 324Q41 344 46 354T68 365H162V621L54 600Q49 608 47 618T44 638Q44 653 51 662T70 676Q94 684 124 692T181 705T219 710Q224 710 232 710T244 707V365H330Q332 356 333 347T334 329Q334
308 329 299T309 289H45ZM338 -10Q326 -10 310 -3T281 19L616 691Q619 699 625 704T644 710Q657 710 671 704T699 681L362 5Q360 0 354 -5T338 -10ZM613 0Q610 8 609 14T607 27Q607 39 609 50T619 69Q650 104 681 133T738 188T781 237T798 286Q798 301 793 312T774
331T734 339Q702 339 678 327T632 301Q623 318 620 328T617 350Q617 369 640 385T700 411T771 421Q820 421 847 408T885 371T896 315Q896 279 879 247T836 186T781 129T729 76H905Q910 55 910 41Q910 0 884 0H613Z" />
<glyph unicode="&#xbe;" horiz-adv-x="961" d="M161 279Q119 279 92 287T54 305Q41 314 41 335Q41 362 61 379Q76 369 99 362T157 354Q200 354 226 370T252 416Q252 438 237 452T195 470Q182 472 162 472T124 473Q122 476 119 489T115 510Q115 520 120 527T140
535Q169 535 197 532T243 524Q286 515 311 487T336 423Q336 373 313 341T250 294T161 279ZM255 505L179 523Q208 541 219 557T231 593Q231 604 226 614T206 630T167 637Q136 637 110 628T64 604Q49 620 48 641T57 671Q73 686 109 698T201 710Q244 710 270 699T309
667T321 620Q321 589 305 559T255 505ZM340 -10Q328 -10 312 -3T283 19L618 691Q621 699 627 704T646 710Q659 710 673 704T701 681L364 5Q362 0 356 -5T340 -10ZM827 -6Q812 -6 794 -2V70H623Q616 78 613 88T609 110Q609 123 616 143Q625 174 641 208T679 276T722
340T765 390Q783 410 800 415T836 421Q845 421 854 420T870 416V147H929Q932 140 934 131T936 109Q936 92 929 81T911 70H870V19Q870 -6 827 -6ZM684 142H796L800 328Q784 316 767 295T733 247T704 194T684 142Z" />
<glyph unicode="&#xbf;" horiz-adv-x="306" d="M153 -195Q122 -195 97 -187T53 -161T24 -117T14 -56Q14 -11 26 23T56 84T92 135T125 184Q139 209 138 233T131 274T131 298Q136 304 149 306T177 308T204 306Q204 306 209 294T217 261T218 216T201 163Q185 133
168 109T135 62T111 15T101 -37Q101 -60 108 -75T126 -98T152 -110T183 -114Q216 -114 236 -104T266 -88Q272 -104 275 -119T278 -153Q278 -164 259 -174T212 -189T153 -195ZM167 392Q137 392 124 408T111 449Q111 473 126 489T167 506Q198 506 210 491T223 449Q223
426 209 409T167 392Z" />
<glyph unicode="&#xc0;" horiz-adv-x="437" d="M56 -2Q48 -2 34 -1T5 1L183 689Q186 703 214 703Q224 703 234 702T252 700L431 15Q433 7 427 3T396 -2Q387 -2 376 -2T348 0L254 394Q246 428 239 463T227 530T219 587Q217 563 212 531T199 463T183 394L94 14Q92
6 86 2T56 -2ZM108 178V252H347V178H108ZM279 753Q267 760 246 774T202 804T163 834T139 855Q142 873 152 894T177 916Q180 916 194 905T229 877T271 839T310 798Q310 798 307 787T296 765T279 753Z" />
<glyph unicode="&#xc1;" horiz-adv-x="437" d="M56 -2Q48 -2 34 -1T5 1L183 689Q186 703 214 703Q224 703 234 702T252 700L431 15Q433 7 427 3T396 -2Q387 -2 376 -2T348 0L254 394Q246 428 239 463T227 530T219 587Q217 563 212 531T199 463T183 394L94 14Q92
6 86 2T56 -2ZM108 178V252H347V178H108ZM170 760Q161 760 154 771T143 793T139 805Q156 824 177 844T220 883T255 911T273 922Q287 922 297 901T310 861Q305 854 287 841T247 811T204 781T170 760Z" />
<glyph unicode="&#xc2;" horiz-adv-x="437" d="M56 -2Q48 -2 34 -1T5 1L183 689Q186 703 214 703Q224 703 234 702T252 700L431 15Q433 7 427 3T396 -2Q387 -2 376 -2T348 0L254 394Q246 428 239 463T227 530T219 587Q217 563 212 531T199 463T183 394L94 14Q92
6 86 2T56 -2ZM108 178V252H347V178H108ZM288 761Q288 761 280 769T260 790T239 816T222 838Q222 838 214 827T192 800T167 773T148 762Q127 762 114 768T92 785L206 908Q214 911 223 911Q230 911 236 909T248 899Q248 899 263 884T297 848T331 809T346 784Q346
773 328 767T288 761Z" />
<glyph unicode="&#xc3;" horiz-adv-x="437" d="M56 -2Q48 -2 34 -1T5 1L183 689Q186 703 214 703Q224 703 234 702T252 700L431 15Q433 7 427 3T396 -2Q387 -2 376 -2T348 0L254 394Q246 428 239 463T227 530T219 587Q217 563 212 531T199 463T183 394L94 14Q92
6 86 2T56 -2ZM108 178V252H347V178H108ZM258 762Q237 762 226 769T208 786T192 802T171 810Q153 810 143 801T126 782T112 772Q101 772 92 782T77 802T72 812Q97 854 127 870T185 887Q201 887 211 880T229 864T247 847T272 840Q296 840 307 849T324 868T337 878Q346
878 352 867T362 845T366 833Q364 829 356 818T333 794T300 772T258 762Z" />
<glyph unicode="&#xc4;" horiz-adv-x="437" d="M56 -2Q48 -2 34 -1T5 1L183 689Q186 703 214 703Q224 703 234 702T252 700L431 15Q433 7 427 3T396 -2Q387 -2 376 -2T348 0L254 394Q246 428 239 463T227 530T219 587Q217 563 212 531T199 463T183 394L94 14Q92
6 86 2T56 -2ZM108 178V252H347V178H108ZM157 772Q138 772 128 785T118 832Q118 858 128 873T162 889Q184 889 193 877T201 834Q201 804 190 788T157 772ZM276 772Q257 772 247 785T236 832Q237 858 248 873T281 889Q304 889 312 877T320 834Q320 804 309 788T276
772Z" />
<glyph unicode="&#xc5;" horiz-adv-x="437" d="M56 -2Q48 -2 34 -1T5 1L183 689Q186 703 214 703Q224 703 234 702T252 700L431 15Q433 7 427 3T396 -2Q387 -2 376 -2T348 0L254 394Q246 428 239 463T227 530T219 587Q217 563 212 531T199 463T183 394L94 14Q92
6 86 2T56 -2ZM108 178V252H347V178H108ZM216 742Q171 742 147 762T122 839Q122 890 149 913T223 937Q270 937 293 917T316 840Q316 791 291 767T216 742ZM218 797Q236 797 247 807T259 840Q259 862 250 871T223 881Q203 881 192 872T181 838Q181 818 190 808T218
797Z" />
<glyph unicode="&#xc6;" horiz-adv-x="615" d="M68 -2Q60 -2 46 -1T17 1L310 686Q313 693 320 696T336 700H360Q357 681 348 645T324 564T295 474T264 391L106 14Q103 7 96 3T68 -2ZM128 178L158 252H364V178H128ZM339 0V684Q339 684 341 692T356 700H595Q595
667 595 652T591 632T580 627H420V73H591Q591 39 591 24T587 4T576 0H339ZM350 344V418H571Q571 372 569 358T556 344H350Z" />
<glyph unicode="&#xc7;" horiz-adv-x="341" d="M196 -10Q167 -10 142 -3T97 23T61 78T38 174T30 321Q30 424 41 493T73 605T118 671T172 702T227 710Q264 710 284 702T313 681T321 655Q321 641 317 628T308 606Q303 610 294 615T271 625T243 630Q224 630 206 624T171
599T142 546T123 458T115 325Q115 249 122 201T143 127T174 90T215 80Q244 80 269 90T307 111Q312 101 316 88T320 62Q320 43 305 27T261 0T196 -10ZM196 -206Q174 -206 157 -200T140 -194Q140 -194 142 -185T147 -166T153 -153Q158 -148 170 -155T198 -163Q214
-163 221 -154T229 -129Q229 -110 221 -103T199 -96Q180 -96 169 -98T158 -101L177 2H222L210 -59Q210 -59 210 -59T227 -58Q246 -58 261 -72T277 -122Q277 -148 267 -167T238 -196T196 -206Z" />
<glyph unicode="&#xc8;" horiz-adv-x="320" d="M44 0V684Q44 684 46 692T61 700H301Q301 667 300 652T296 632T286 627H125V73H297Q297 39 296 24T292 4T281 0H44ZM55 344V418H276Q276 372 274 358T261 344H55ZM231 753Q219 760 198 774T154 804T115 834T91 855Q94
873 104 894T129 916Q132 916 146 905T181 877T223 839T262 798Q262 798 259 787T248 765T231 753Z" />
<glyph unicode="&#xc9;" horiz-adv-x="320" d="M44 0V684Q44 684 46 692T61 700H301Q301 667 300 652T296 632T286 627H125V73H297Q297 39 296 24T292 4T281 0H44ZM55 344V418H276Q276 372 274 358T261 344H55ZM122 760Q113 760 106 771T95 793T91 805Q108 824
129 844T172 883T207 911T225 922Q239 922 249 901T262 861Q257 854 239 841T199 811T156 781T122 760Z" />
<glyph unicode="&#xca;" horiz-adv-x="320" d="M44 0V684Q44 684 46 692T61 700H301Q301 667 300 652T296 632T286 627H125V73H297Q297 39 296 24T292 4T281 0H44ZM55 344V418H276Q276 372 274 358T261 344H55ZM239 761Q239 761 231 769T211 790T190 816T173 838Q173
838 165 827T143 800T118 773T99 762Q78 762 65 768T43 785L157 908Q165 911 174 911Q181 911 187 909T199 899Q199 899 214 884T248 848T282 809T297 784Q297 773 279 767T239 761Z" />
<glyph unicode="&#xcb;" horiz-adv-x="320" d="M44 0V684Q44 684 46 692T61 700H301Q301 667 300 652T296 632T286 627H125V73H297Q297 39 296 24T292 4T281 0H44ZM55 344V418H276Q276 372 274 358T261 344H55ZM108 772Q89 772 79 785T69 832Q69 858 79 873T113
889Q135 889 144 877T152 834Q152 804 141 788T108 772ZM227 772Q208 772 198 785T187 832Q188 858 199 873T232 889Q255 889 263 877T271 834Q271 804 260 788T227 772Z" />
<glyph unicode="&#xcc;" horiz-adv-x="169" d="M43 0V663Q43 682 47 689T68 698T126 700V16Q126 8 122 5T102 1T43 0ZM146 753Q134 760 113 774T69 804T30 834T6 855Q9 873 19 894T44 916Q47 916 61 905T96 877T138 839T177 798Q177 798 174 787T163 765T146 753Z" />
<glyph unicode="&#xcd;" horiz-adv-x="169" d="M43 0V663Q43 682 47 689T68 698T126 700V16Q126 8 122 5T102 1T43 0ZM37 760Q28 760 21 771T10 793T6 805Q23 824 44 844T87 883T122 911T140 922Q154 922 164 901T177 861Q172 854 154 841T114 811T71 781T37 760Z" />
<glyph unicode="&#xce;" horiz-adv-x="169" d="M43 0V663Q43 682 47 689T68 698T126 700V16Q126 8 122 5T102 1T43 0ZM154 761Q154 761 146 769T126 790T105 816T88 838Q88 838 80 827T58 800T33 773T14 762Q-7 762 -20 768T-42 785L72 908Q80 911 89 911Q96 911
102 909T114 899Q114 899 129 884T163 848T197 809T212 784Q212 773 194 767T154 761Z" />
<glyph unicode="&#xcf;" horiz-adv-x="169" d="M43 0V663Q43 682 47 689T68 698T126 700V16Q126 8 122 5T102 1T43 0ZM23 772Q4 772 -6 785T-16 832Q-16 858 -6 873T28 889Q50 889 59 877T67 834Q67 804 56 788T23 772ZM142 772Q123 772 113 785T102 832Q103 858
114 873T147 889Q170 889 178 877T186 834Q186 804 175 788T142 772Z" />
<glyph unicode="&#xd0;" horiz-adv-x="387" d="M44 0V681Q44 690 49 695T71 700H168Q217 700 254 685T315 635T351 541T364 394Q364 281 351 205T313 84T251 20T169 0H44ZM4 331Q4 369 6 385T21 401H204Q204 364 202 348T188 331H4ZM125 78L170 77Q190 77 208
88T240 131T263 227T272 394Q272 463 266 508T247 579T215 615T171 625H125V78Z" />
<glyph unicode="&#xd1;" horiz-adv-x="444" d="M324 0L209 275Q203 291 193 320T170 387T146 461T123 531T106 582T100 602L54 652L60 700H122L234 430Q241 413 251 383T274 316T298 243T320 175T336 126T343 107L392 48L384 0H324ZM43 0V684Q43 700 60 700L124
684L113 567Q115 553 116 528T119 473T121 409T123 346T124 293T124 259V16Q124 8 121 5T101 1T43 0ZM384 0L320 16L329 150Q327 165 326 189T324 243T322 304T321 363T320 414T320 448V684Q320 692 323 695T344 699T401 700V16Q401 0 384 0ZM261 762Q240 762 229
769T211 786T195 802T174 810Q156 810 146 801T129 782T115 772Q104 772 95 782T80 802T75 812Q100 854 130 870T188 887Q204 887 214 880T232 864T250 847T275 840Q299 840 310 849T327 868T340 878Q349 878 355 867T365 845T369 833Q367 829 359 818T336 794T303
772T261 762Z" />
<glyph unicode="&#xd2;" horiz-adv-x="429" d="M211 -10Q162 -10 128 6T72 64T40 175T30 354Q30 487 51 565T114 676T222 710Q270 710 304 693T359 635T389 527T399 357Q399 219 380 139T319 25T211 -10ZM214 74Q251 74 271 101T301 191T311 355Q311 455 303 514T276
600T220 626Q185 626 163 598T131 506T121 334Q121 241 129 184T158 101T214 74ZM276 753Q264 760 243 774T199 804T160 834T136 855Q139 873 149 894T174 916Q177 916 191 905T226 877T268 839T307 798Q307 798 304 787T293 765T276 753Z" />
<glyph unicode="&#xd3;" horiz-adv-x="429" d="M211 -10Q162 -10 128 6T72 64T40 175T30 354Q30 487 51 565T114 676T222 710Q270 710 304 693T359 635T389 527T399 357Q399 219 380 139T319 25T211 -10ZM214 74Q251 74 271 101T301 191T311 355Q311 455 303 514T276
600T220 626Q185 626 163 598T131 506T121 334Q121 241 129 184T158 101T214 74ZM167 760Q158 760 151 771T140 793T136 805Q153 824 174 844T217 883T252 911T270 922Q284 922 294 901T307 861Q302 854 284 841T244 811T201 781T167 760Z" />
<glyph unicode="&#xd4;" horiz-adv-x="429" d="M211 -10Q162 -10 128 6T72 64T40 175T30 354Q30 487 51 565T114 676T222 710Q270 710 304 693T359 635T389 527T399 357Q399 219 380 139T319 25T211 -10ZM214 74Q251 74 271 101T301 191T311 355Q311 455 303 514T276
600T220 626Q185 626 163 598T131 506T121 334Q121 241 129 184T158 101T214 74ZM284 761Q284 761 276 769T256 790T235 816T218 838Q218 838 210 827T188 800T163 773T144 762Q123 762 110 768T88 785L202 908Q210 911 219 911Q226 911 232 909T244 899Q244 899
259 884T293 848T327 809T342 784Q342 773 324 767T284 761Z" />
<glyph unicode="&#xd5;" horiz-adv-x="429" d="M211 -10Q162 -10 128 6T72 64T40 175T30 354Q30 487 51 565T114 676T222 710Q270 710 304 693T359 635T389 527T399 357Q399 219 380 139T319 25T211 -10ZM214 74Q251 74 271 101T301 191T311 355Q311 455 303 514T276
600T220 626Q185 626 163 598T131 506T121 334Q121 241 129 184T158 101T214 74ZM254 762Q233 762 222 769T204 786T188 802T167 810Q149 810 139 801T122 782T108 772Q97 772 88 782T73 802T68 812Q93 854 123 870T181 887Q197 887 207 880T225 864T243 847T268
840Q292 840 303 849T320 868T333 878Q342 878 348 867T358 845T362 833Q360 829 352 818T329 794T296 772T254 762Z" />
<glyph unicode="&#xd6;" horiz-adv-x="429" d="M211 -10Q162 -10 128 6T72 64T40 175T30 354Q30 487 51 565T114 676T222 710Q270 710 304 693T359 635T389 527T399 357Q399 219 380 139T319 25T211 -10ZM214 74Q251 74 271 101T301 191T311 355Q311 455 303 514T276
600T220 626Q185 626 163 598T131 506T121 334Q121 241 129 184T158 101T214 74ZM153 772Q134 772 124 785T114 832Q114 858 124 873T158 889Q180 889 189 877T197 834Q197 804 186 788T153 772ZM272 772Q253 772 243 785T232 832Q233 858 244 873T277 889Q300
889 308 877T316 834Q316 804 305 788T272 772Z" />
<glyph unicode="&#xd7;" horiz-adv-x="418" d="M284 144L71 381Q98 407 111 417T133 419L346 183Q319 157 306 147T284 144ZM133 144Q125 136 112 146T71 183L284 419Q293 428 306 418T346 381L133 144Z" />
<glyph unicode="&#xd8;" horiz-adv-x="436" d="M222 710Q287 710 326 678T384 569T402 357Q402 219 383 139T322 25T214 -10Q165 -10 131 6T75 64T43 175T33 354Q33 487 53 565T115 676T222 710ZM222 627Q187 627 166 599T134 507T124 334Q124 241 131 184T157
101T211 74Q235 74 254 84T287 124T307 210T314 355Q314 455 307 514T279 600T222 627ZM67 122Q67 122 78 120T100 111T113 94Q114 90 109 74T96 39T82 4T73 -16Q62 -16 44 -10T23 9Q22 12 29 29T44 68T60 106T67 122ZM101 90L296 642Q296 642 306 640T327 633T339
617Q340 614 330 584T302 504T265 396T223 280T185 174T157 96T146 67Q146 67 136 69T114 76T101 90ZM371 556Q371 556 363 558T343 564T323 575T313 587Q313 587 317 599T328 629T342 666T355 699T363 719Q363 719 375 717T400 710T415 694Q415 691 411 676T401
641T387 602T376 569T371 556Z" />
<glyph unicode="&#xd9;" horiz-adv-x="437" d="M223 -10Q163 -10 127 7T73 53T49 122T43 204V683Q43 692 47 695T68 699T127 700V202Q127 172 130 147T143 103T173 75T223 65Q250 65 274 70T311 82V683Q311 692 315 695T336 699T393 700V26Q375 14 329 2T223 -10ZM279
753Q267 760 246 774T202 804T163 834T139 855Q142 873 152 894T177 916Q180 916 194 905T229 877T271 839T310 798Q310 798 307 787T296 765T279 753Z" />
<glyph unicode="&#xda;" horiz-adv-x="437" d="M223 -10Q163 -10 127 7T73 53T49 122T43 204V683Q43 692 47 695T68 699T127 700V202Q127 172 130 147T143 103T173 75T223 65Q250 65 274 70T311 82V683Q311 692 315 695T336 699T393 700V26Q375 14 329 2T223 -10ZM170
760Q161 760 154 771T143 793T139 805Q156 824 177 844T220 883T255 911T273 922Q287 922 297 901T310 861Q305 854 287 841T247 811T204 781T170 760Z" />
<glyph unicode="&#xdb;" horiz-adv-x="437" d="M223 -10Q163 -10 127 7T73 53T49 122T43 204V683Q43 692 47 695T68 699T127 700V202Q127 172 130 147T143 103T173 75T223 65Q250 65 274 70T311 82V683Q311 692 315 695T336 699T393 700V26Q375 14 329 2T223 -10ZM288
761Q288 761 280 769T260 790T239 816T222 838Q222 838 214 827T192 800T167 773T148 762Q127 762 114 768T92 785L206 908Q214 911 223 911Q230 911 236 909T248 899Q248 899 263 884T297 848T331 809T346 784Q346 773 328 767T288 761Z" />
<glyph unicode="&#xdc;" horiz-adv-x="437" d="M223 -10Q163 -10 127 7T73 53T49 122T43 204V683Q43 692 47 695T68 699T127 700V202Q127 172 130 147T143 103T173 75T223 65Q250 65 274 70T311 82V683Q311 692 315 695T336 699T393 700V26Q375 14 329 2T223 -10ZM157
772Q138 772 128 785T118 832Q118 858 128 873T162 889Q184 889 193 877T201 834Q201 804 190 788T157 772ZM276 772Q257 772 247 785T236 832Q237 858 248 873T281 889Q304 889 312 877T320 834Q320 804 309 788T276 772Z" />
<glyph unicode="&#xdd;" horiz-adv-x="364" d="M207 234L161 235L6 687Q4 694 7 696T31 699T98 700L138 563Q145 539 153 508T169 445T181 390T187 354Q188 365 193 389T205 445T221 507T237 563L272 685Q274 693 278 696T301 699T360 700L207 234ZM144 0V342H225V16Q225
8 222 5T202 1T144 0ZM134 760Q125 760 118 771T107 793T103 805Q120 824 141 844T184 883T219 911T237 922Q251 922 261 901T274 861Q269 854 251 841T211 811T168 781T134 760Z" />
<glyph unicode="&#xde;" horiz-adv-x="360" d="M43 0V680Q43 693 54 696T99 700H124V566H159Q222 566 263 546T323 482T343 369Q343 307 329 265T289 198T230 162T160 150H124V16Q124 8 120 5T99 1T43 0ZM168 225Q196 225 214 240T243 288T253 378Q253 413 246
439T222 480T174 495Q158 495 147 495T124 493V228Q132 228 142 227T168 225Z" />
<glyph unicode="&#xdf;" horiz-adv-x="465" d="M84 -9Q61 -9 50 -4T39 2Q39 2 44 21T50 74L47 550Q47 631 91 668T208 705Q263 705 301 693T363 659T398 613T409 561Q409 533 398 516T371 485T339 461T311 436T300 403Q300 383 315 364T354 324T401 277T440 217T456
138Q456 70 416 31T306 -9Q246 -9 217 6T187 36Q187 57 194 70T208 91Q215 84 235 74T288 64Q323 64 344 82T365 137Q365 169 350 195T311 245T266 293T227 342T211 399Q211 426 222 445T250 477T283 503T310 529T322 560Q322 578 310 593T275 619T214 629Q165
629 147 600T129 504L132 44Q132 16 123 4T84 -9Z" />
<glyph unicode="&#xe0;" horiz-adv-x="354" d="M172 -10Q144 -10 119 -6T73 14T41 60T29 142Q29 194 40 226T70 276T113 300T162 306Q178 306 199 303T236 293Q236 293 236 307T236 339T236 372Q236 396 229 408T208 426T174 432Q135 432 99 425T41 409Q34 421
32 433T30 456Q30 463 32 471T41 483Q54 491 95 500T193 510Q258 510 287 483T317 388V335Q317 278 317 221T315 113T311 24Q291 12 256 1T172 -10ZM180 58Q196 58 211 63T232 75Q234 91 234 119T235 178T236 236Q226 241 213 243T189 245Q173 245 160 242T136
228T120 197T114 144Q114 117 118 100T132 74T153 61T180 58ZM235 553Q223 560 202 574T158 604T119 634T95 655Q98 673 108 694T133 716Q136 716 150 705T185 677T227 639T266 598Q266 598 263 587T252 565T235 553Z" />
<glyph unicode="&#xe1;" horiz-adv-x="354" d="M172 -10Q144 -10 119 -6T73 14T41 60T29 142Q29 194 40 226T70 276T113 300T162 306Q178 306 199 303T236 293Q236 293 236 307T236 339T236 372Q236 396 229 408T208 426T174 432Q135 432 99 425T41 409Q34 421
32 433T30 456Q30 463 32 471T41 483Q54 491 95 500T193 510Q258 510 287 483T317 388V335Q317 278 317 221T315 113T311 24Q291 12 256 1T172 -10ZM180 58Q196 58 211 63T232 75Q234 91 234 119T235 178T236 236Q226 241 213 243T189 245Q173 245 160 242T136
228T120 197T114 144Q114 117 118 100T132 74T153 61T180 58ZM126 560Q117 560 110 571T99 593T95 605Q112 624 133 644T176 683T211 711T229 722Q243 722 253 701T266 661Q261 654 243 641T203 611T160 581T126 560Z" />
<glyph unicode="&#xe2;" horiz-adv-x="354" d="M172 -10Q144 -10 119 -6T73 14T41 60T29 142Q29 194 40 226T70 276T113 300T162 306Q178 306 199 303T236 293Q236 293 236 307T236 339T236 372Q236 396 229 408T208 426T174 432Q135 432 99 425T41 409Q34 421
32 433T30 456Q30 463 32 471T41 483Q54 491 95 500T193 510Q258 510 287 483T317 388V335Q317 278 317 221T315 113T311 24Q291 12 256 1T172 -10ZM180 58Q196 58 211 63T232 75Q234 91 234 119T235 178T236 236Q226 241 213 243T189 245Q173 245 160 242T136
228T120 197T114 144Q114 117 118 100T132 74T153 61T180 58ZM244 561Q244 561 236 569T216 590T195 616T178 638Q178 638 170 627T148 600T123 573T104 562Q83 562 70 568T48 585L162 708Q170 711 179 711Q186 711 192 709T204 699Q204 699 219 684T253 648T287
609T302 584Q302 573 284 567T244 561Z" />
<glyph unicode="&#xe3;" horiz-adv-x="354" d="M172 -10Q144 -10 119 -6T73 14T41 60T29 142Q29 194 40 226T70 276T113 300T162 306Q178 306 199 303T236 293Q236 293 236 307T236 339T236 372Q236 396 229 408T208 426T174 432Q135 432 99 425T41 409Q34 421
32 433T30 456Q30 463 32 471T41 483Q54 491 95 500T193 510Q258 510 287 483T317 388V335Q317 278 317 221T315 113T311 24Q291 12 256 1T172 -10ZM180 58Q196 58 211 63T232 75Q234 91 234 119T235 178T236 236Q226 241 213 243T189 245Q173 245 160 242T136
228T120 197T114 144Q114 117 118 100T132 74T153 61T180 58ZM214 562Q193 562 182 569T164 586T148 602T127 610Q109 610 99 601T82 582T68 572Q57 572 48 582T33 602T28 612Q53 654 83 670T141 687Q157 687 167 680T185 664T203 647T228 640Q252 640 263 649T280
668T293 678Q302 678 308 667T318 645T322 633Q320 629 312 618T289 594T256 572T214 562Z" />
<glyph unicode="&#xe4;" horiz-adv-x="354" d="M172 -10Q144 -10 119 -6T73 14T41 60T29 142Q29 194 40 226T70 276T113 300T162 306Q178 306 199 303T236 293Q236 293 236 307T236 339T236 372Q236 396 229 408T208 426T174 432Q135 432 99 425T41 409Q34 421
32 433T30 456Q30 463 32 471T41 483Q54 491 95 500T193 510Q258 510 287 483T317 388V335Q317 278 317 221T315 113T311 24Q291 12 256 1T172 -10ZM180 58Q196 58 211 63T232 75Q234 91 234 119T235 178T236 236Q226 241 213 243T189 245Q173 245 160 242T136
228T120 197T114 144Q114 117 118 100T132 74T153 61T180 58ZM113 572Q94 572 84 585T74 632Q74 658 84 673T118 689Q140 689 149 677T157 634Q157 604 146 588T113 572ZM232 572Q213 572 203 585T192 632Q193 658 204 673T237 689Q260 689 268 677T276 634Q276
604 265 588T232 572Z" />
<glyph unicode="&#xe5;" horiz-adv-x="354" d="M172 -10Q144 -10 119 -6T73 14T41 60T29 142Q29 194 40 226T70 276T113 300T162 306Q178 306 199 303T236 293Q236 293 236 307T236 339T236 372Q236 396 229 408T208 426T174 432Q135 432 99 425T41 409Q34 421
32 433T30 456Q30 463 32 471T41 483Q54 491 95 500T193 510Q258 510 287 483T317 388V335Q317 278 317 221T315 113T311 24Q291 12 256 1T172 -10ZM180 58Q196 58 211 63T232 75Q234 91 234 119T235 178T236 236Q226 241 213 243T189 245Q173 245 160 242T136
228T120 197T114 144Q114 117 118 100T132 74T153 61T180 58ZM172 542Q127 542 103 562T78 639Q78 690 105 713T179 737Q226 737 249 717T272 640Q272 591 247 567T172 542ZM174 597Q192 597 203 607T215 640Q215 662 206 671T179 681Q159 681 148 672T137 638Q137
618 146 608T174 597Z" />
<glyph unicode="&#xe6;" horiz-adv-x="582" d="M400 -9Q365 -9 338 -1T292 31T263 101T253 224Q253 321 266 378T302 463T354 501T418 510Q480 510 512 471T545 351Q545 318 543 282T533 219Q482 212 438 213T361 219T309 228T290 232L291 299Q291 299 307 295T348
285T404 278T461 280Q464 294 465 311T466 342Q465 396 453 417T408 439Q391 439 376 430T349 397T331 333T324 227Q324 174 329 143T345 95T372 75T410 70Q446 70 476 78T531 101Q535 89 537 67T539 28Q539 21 520 13T469 -2T400 -9ZM178 58Q193 58 211 62T236
74V250Q225 254 212 256T189 258Q173 258 160 254T136 237T120 204T114 149Q114 108 122 89T144 64T178 58ZM172 -9Q144 -10 119 -6T73 14T41 61T29 149Q29 201 40 234T70 286T112 312T160 319Q178 319 199 316T236 306Q236 306 236 318T236 347T236 378Q236 401
227 414T203 432T168 437Q130 437 98 431T42 410Q35 422 34 438T32 459Q32 467 35 473T42 483Q56 492 94 501T197 510Q255 510 279 483T304 388V21Q283 9 252 0T172 -9Z" />
<glyph unicode="&#xe7;" horiz-adv-x="312" d="M180 -10Q143 -10 116 -1T69 35T41 111T31 239Q31 329 47 383T89 464T147 501T210 510Q245 510 269 498T293 465Q293 457 292 445T285 420Q273 427 254 432T214 438Q197 438 180 432T147 405T124 345T115 239Q115
186 120 152T137 98T165 70T204 62Q228 62 249 69T284 85Q288 72 289 62T291 41Q291 20 260 5T180 -10ZM160 -206Q138 -206 121 -200T104 -194Q104 -194 106 -185T111 -166T117 -153Q122 -148 134 -155T162 -163Q178 -163 185 -154T193 -129Q193 -110 185 -103T163
-96Q144 -96 133 -98T122 -101L141 2H186L174 -59Q174 -59 174 -59T191 -58Q210 -58 225 -72T241 -122Q241 -148 231 -167T202 -196T160 -206Z" />
<glyph unicode="&#xe8;" horiz-adv-x="360" d="M189 -10Q155 -10 126 -1T75 34T42 105T30 224Q30 318 45 375T85 461T142 500T207 510Q270 510 302 470T334 349Q334 316 332 281T322 219Q288 212 246 209T166 205T104 203T79 203L80 269Q80 269 99 269T145 268T201
271T250 280Q253 294 254 310T255 340Q254 394 243 416T198 439Q181 439 166 430T138 397T120 332T113 227Q113 180 118 149T135 101T164 77T207 69Q237 69 266 77T320 100Q325 88 326 73T328 45Q328 30 309 17T259 -3T189 -10ZM250 553Q238 560 217 574T173 604T134
634T110 655Q113 673 123 694T148 716Q151 716 165 705T200 677T242 639T281 598Q281 598 278 587T267 565T250 553Z" />
<glyph unicode="&#xe9;" horiz-adv-x="360" d="M189 -10Q155 -10 126 -1T75 34T42 105T30 224Q30 318 45 375T85 461T142 500T207 510Q270 510 302 470T334 349Q334 316 332 281T322 219Q288 212 246 209T166 205T104 203T79 203L80 269Q80 269 99 269T145 268T201
271T250 280Q253 294 254 310T255 340Q254 394 243 416T198 439Q181 439 166 430T138 397T120 332T113 227Q113 180 118 149T135 101T164 77T207 69Q237 69 266 77T320 100Q325 88 326 73T328 45Q328 30 309 17T259 -3T189 -10ZM141 560Q132 560 125 571T114 593T110
605Q127 624 148 644T191 683T226 711T244 722Q258 722 268 701T281 661Q276 654 258 641T218 611T175 581T141 560Z" />
<glyph unicode="&#xea;" horiz-adv-x="360" d="M189 -10Q155 -10 126 -1T75 34T42 105T30 224Q30 318 45 375T85 461T142 500T207 510Q270 510 302 470T334 349Q334 316 332 281T322 219Q288 212 246 209T166 205T104 203T79 203L80 269Q80 269 99 269T145 268T201
271T250 280Q253 294 254 310T255 340Q254 394 243 416T198 439Q181 439 166 430T138 397T120 332T113 227Q113 180 118 149T135 101T164 77T207 69Q237 69 266 77T320 100Q325 88 326 73T328 45Q328 30 309 17T259 -3T189 -10ZM258 561Q258 561 250 569T230 590T209
616T192 638Q192 638 184 627T162 600T137 573T118 562Q97 562 84 568T62 585L176 708Q184 711 193 711Q200 711 206 709T218 699Q218 699 233 684T267 648T301 609T316 584Q316 573 298 567T258 561Z" />
<glyph unicode="&#xeb;" horiz-adv-x="360" d="M189 -10Q155 -10 126 -1T75 34T42 105T30 224Q30 318 45 375T85 461T142 500T207 510Q270 510 302 470T334 349Q334 316 332 281T322 219Q288 212 246 209T166 205T104 203T79 203L80 269Q80 269 99 269T145 268T201
271T250 280Q253 294 254 310T255 340Q254 394 243 416T198 439Q181 439 166 430T138 397T120 332T113 227Q113 180 118 149T135 101T164 77T207 69Q237 69 266 77T320 100Q325 88 326 73T328 45Q328 30 309 17T259 -3T189 -10ZM127 572Q108 572 98 585T88 632Q88
658 98 673T132 689Q154 689 163 677T171 634Q171 604 160 588T127 572ZM246 572Q227 572 217 585T206 632Q207 658 218 673T251 689Q274 689 282 677T290 634Q290 604 279 588T246 572Z" />
<glyph unicode="&#xec;" horiz-adv-x="175" d="M46 0V463Q46 482 53 489T78 498T129 500V16Q129 8 126 5T105 1T46 0ZM404 553Q392 560 371 574T327 604T288 634T264 655Q267 673 277 694T302 716Q305 716 319 705T354 677T396 639T435 598Q435 598 432 587T421
565T404 553Z" />
<glyph unicode="&#xed;" horiz-adv-x="175" d="M46 0V463Q46 482 53 489T78 498T129 500V16Q129 8 126 5T105 1T46 0ZM295 560Q286 560 279 571T268 593T264 605Q281 624 302 644T345 683T380 711T398 722Q412 722 422 701T435 661Q430 654 412 641T372 611T329
581T295 560Z" />
<glyph unicode="&#xee;" horiz-adv-x="175" d="M46 0V463Q46 482 53 489T78 498T129 500V16Q129 8 126 5T105 1T46 0ZM413 561Q413 561 405 569T385 590T364 616T347 638Q347 638 339 627T317 600T292 573T273 562Q252 562 239 568T217 585L331 708Q339 711 348
711Q355 711 361 709T373 699Q373 699 388 684T422 648T456 609T471 584Q471 573 453 567T413 561Z" />
<glyph unicode="&#xef;" horiz-adv-x="175" d="M46 0V463Q46 482 53 489T78 498T129 500V16Q129 8 126 5T105 1T46 0ZM282 572Q263 572 253 585T243 632Q243 658 253 673T287 689Q309 689 318 677T326 634Q326 604 315 588T282 572ZM401 572Q382 572 372 585T361
632Q362 658 373 673T406 689Q429 689 437 677T445 634Q445 604 434 588T401 572Z" />
<glyph unicode="&#xf0;" horiz-adv-x="408" d="M209 -10Q149 -10 109 16T50 100T30 257Q30 380 73 444T190 509Q235 509 264 490T311 432L314 343Q295 393 270 415T211 437Q177 437 156 411T123 342T112 244Q112 147 137 103T207 58Q238 58 256 75T283 125T295
198T298 286Q298 367 288 429T257 539T203 628T124 707Q134 724 150 734T183 744Q191 744 199 741T213 732Q296 664 338 557T380 289Q380 228 373 175T348 79T297 14T209 -10ZM129 564Q115 599 111 615T118 637L325 717Q339 682 343 666T336 645L129 564Z" />
<glyph unicode="&#xf1;" horiz-adv-x="382" d="M45 0V476Q65 485 92 492T148 505T204 510Q256 510 287 497T331 454T344 376V16Q344 8 340 5T319 1T260 0V352Q260 399 249 419T201 439Q184 439 163 435T126 421V16Q126 8 123 5T102 1T45 0ZM231 562Q210 562 199
569T181 586T165 602T144 610Q126 610 116 601T99 582T85 572Q74 572 65 582T50 602T45 612Q70 654 100 670T158 687Q174 687 184 680T202 664T220 647T245 640Q269 640 280 649T297 668T310 678Q319 678 325 667T335 645T339 633Q337 629 329 618T306 594T273
572T231 562Z" />
<glyph unicode="&#xf2;" horiz-adv-x="376" d="M184 -10Q146 -10 117 -1T67 36T37 114T27 250Q27 387 71 448T193 510Q246 510 280 488T332 410T349 253Q349 113 307 52T184 -10ZM186 59Q208 59 224 74T251 132T261 252Q261 332 253 372T230 427T190 441Q168 441
151 426T125 368T115 248Q115 187 120 149T133 92T156 66T186 59ZM251 553Q239 560 218 574T174 604T135 634T111 655Q114 673 124 694T149 716Q152 716 166 705T201 677T243 639T282 598Q282 598 279 587T268 565T251 553Z" />
<glyph unicode="&#xf3;" horiz-adv-x="376" d="M184 -10Q146 -10 117 -1T67 36T37 114T27 250Q27 387 71 448T193 510Q246 510 280 488T332 410T349 253Q349 113 307 52T184 -10ZM186 59Q208 59 224 74T251 132T261 252Q261 332 253 372T230 427T190 441Q168 441
151 426T125 368T115 248Q115 187 120 149T133 92T156 66T186 59ZM142 560Q133 560 126 571T115 593T111 605Q128 624 149 644T192 683T227 711T245 722Q259 722 269 701T282 661Q277 654 259 641T219 611T176 581T142 560Z" />
<glyph unicode="&#xf4;" horiz-adv-x="376" d="M184 -10Q146 -10 117 -1T67 36T37 114T27 250Q27 387 71 448T193 510Q246 510 280 488T332 410T349 253Q349 113 307 52T184 -10ZM186 59Q208 59 224 74T251 132T261 252Q261 332 253 372T230 427T190 441Q168 441
151 426T125 368T115 248Q115 187 120 149T133 92T156 66T186 59ZM259 561Q259 561 251 569T231 590T210 616T193 638Q193 638 185 627T163 600T138 573T119 562Q98 562 85 568T63 585L177 708Q185 711 194 711Q201 711 207 709T219 699Q219 699 234 684T268 648T302
609T317 584Q317 573 299 567T259 561Z" />
<glyph unicode="&#xf5;" horiz-adv-x="376" d="M184 -10Q146 -10 117 -1T67 36T37 114T27 250Q27 387 71 448T193 510Q246 510 280 488T332 410T349 253Q349 113 307 52T184 -10ZM186 59Q208 59 224 74T251 132T261 252Q261 332 253 372T230 427T190 441Q168 441
151 426T125 368T115 248Q115 187 120 149T133 92T156 66T186 59ZM229 562Q208 562 197 569T179 586T163 602T142 610Q124 610 114 601T97 582T83 572Q72 572 63 582T48 602T43 612Q68 654 98 670T156 687Q172 687 182 680T200 664T218 647T243 640Q267 640 278
649T295 668T308 678Q317 678 323 667T333 645T337 633Q335 629 327 618T304 594T271 572T229 562Z" />
<glyph unicode="&#xf6;" horiz-adv-x="376" d="M184 -10Q146 -10 117 -1T67 36T37 114T27 250Q27 387 71 448T193 510Q246 510 280 488T332 410T349 253Q349 113 307 52T184 -10ZM186 59Q208 59 224 74T251 132T261 252Q261 332 253 372T230 427T190 441Q168 441
151 426T125 368T115 248Q115 187 120 149T133 92T156 66T186 59ZM128 572Q109 572 99 585T89 632Q89 658 99 673T133 689Q155 689 164 677T172 634Q172 604 161 588T128 572ZM247 572Q228 572 218 585T207 632Q208 658 219 673T252 689Q275 689 283 677T291 634Q291
604 280 588T247 572Z" />
<glyph unicode="&#xf7;" horiz-adv-x="418" d="M34 246Q34 285 36 301T51 317H384Q384 280 382 263T368 246H34ZM207 80Q180 80 169 94T158 132Q158 153 171 168T207 183Q235 183 246 169T258 132Q258 111 245 96T207 80ZM207 376Q180 376 169 390T158 427Q158
448 171 463T207 478Q235 478 246 464T258 427Q258 406 245 391T207 376Z" />
<glyph unicode="&#xf8;" horiz-adv-x="412" d="M207 -10Q168 -10 138 -1T88 36T58 114T48 250Q48 387 91 448T213 510Q266 510 300 488T352 410T369 253Q369 113 327 52T207 -10ZM62 -26Q47 -24 32 -15T17 8Q17 11 25 26T45 61T64 94T73 109Q73 109 83 105T104
92T114 73Q114 69 107 55T90 23T72 -9T62 -26ZM207 59Q229 59 245 74T271 132T281 252Q281 332 274 372T251 425T211 439Q189 439 172 424T145 368T136 248Q136 187 140 149T154 92T176 66T207 59ZM131 67Q126 69 117 72T100 81T92 96L276 423Q276 423 286 422T305
414T315 398Q315 396 305 378T279 330T244 266T205 198T169 134T142 87T131 67ZM334 356Q334 356 326 360T308 370T290 383T282 397Q282 397 288 408T304 437T325 473T345 504T357 522Q357 522 368 518T391 507T403 489Q403 485 396 471T379 437T359 400T341 369T334
356Z" />
<glyph unicode="&#xf9;" horiz-adv-x="389" d="M194 -10Q134 -10 102 8T58 63T45 156V484Q45 492 48 495T68 499T128 500V149Q128 117 133 98T153 70T195 61Q209 61 228 65T263 79V484Q263 492 266 495T286 499T344 500V26Q315 10 275 0T194 -10ZM255 553Q243
560 222 574T178 604T139 634T115 655Q118 673 128 694T153 716Q156 716 170 705T205 677T247 639T286 598Q286 598 283 587T272 565T255 553Z" />
<glyph unicode="&#xfa;" horiz-adv-x="389" d="M194 -10Q134 -10 102 8T58 63T45 156V484Q45 492 48 495T68 499T128 500V149Q128 117 133 98T153 70T195 61Q209 61 228 65T263 79V484Q263 492 266 495T286 499T344 500V26Q315 10 275 0T194 -10ZM146 560Q137
560 130 571T119 593T115 605Q132 624 153 644T196 683T231 711T249 722Q263 722 273 701T286 661Q281 654 263 641T223 611T180 581T146 560Z" />
<glyph unicode="&#xfb;" horiz-adv-x="389" d="M194 -10Q134 -10 102 8T58 63T45 156V484Q45 492 48 495T68 499T128 500V149Q128 117 133 98T153 70T195 61Q209 61 228 65T263 79V484Q263 492 266 495T286 499T344 500V26Q315 10 275 0T194 -10ZM264 561Q264
561 256 569T236 590T215 616T198 638Q198 638 190 627T168 600T143 573T124 562Q103 562 90 568T68 585L182 708Q190 711 199 711Q206 711 212 709T224 699Q224 699 239 684T273 648T307 609T322 584Q322 573 304 567T264 561Z" />
<glyph unicode="&#xfc;" horiz-adv-x="389" d="M194 -10Q134 -10 102 8T58 63T45 156V484Q45 492 48 495T68 499T128 500V149Q128 117 133 98T153 70T195 61Q209 61 228 65T263 79V484Q263 492 266 495T286 499T344 500V26Q315 10 275 0T194 -10ZM133 572Q114
572 104 585T94 632Q94 658 104 673T138 689Q160 689 169 677T177 634Q177 604 166 588T133 572ZM252 572Q233 572 223 585T212 632Q213 658 224 673T257 689Q280 689 288 677T296 634Q296 604 285 588T252 572Z" />
<glyph unicode="&#xfd;" horiz-adv-x="356" d="M77 -193Q33 -193 15 -182T-4 -154Q-4 -142 -1 -129T8 -108Q18 -115 36 -119T71 -124Q95 -124 114 -101T144 -16L24 478Q21 489 23 493T43 499T103 500L157 261Q163 231 168 200T176 143T181 100T184 84Q184 84 185
100T190 142T198 200T208 262L253 476Q255 489 259 493T281 499T340 500L217 -27Q202 -90 184 -126T140 -178T77 -193ZM130 560Q121 560 114 571T103 593T99 605Q116 624 137 644T180 683T215 711T233 722Q247 722 257 701T270 661Q265 654 247 641T207 611T164
581T130 560Z" />
<glyph unicode="&#xfe;" horiz-adv-x="383" d="M79 -200Q58 -200 52 -193T46 -166V470Q76 489 114 499T192 509Q242 509 278 492T335 429T355 300Q355 220 345 165T319 76T282 23T242 -3T203 -10Q176 -10 158 -3T127 16V-194Q117 -197 105 -198T79 -200ZM178 60Q190
60 204 68T233 100T256 170T265 293Q265 356 256 387T230 428T187 438Q170 438 155 433T127 417V88Q136 72 149 66T178 60ZM46 235V698Q46 717 52 724T77 733T127 735V251L46 235Z" />
<glyph unicode="&#xff;" horiz-adv-x="356" d="M77 -193Q33 -193 15 -182T-4 -154Q-4 -142 -1 -129T8 -108Q18 -115 36 -119T71 -124Q95 -124 114 -101T144 -16L24 478Q21 489 23 493T43 499T103 500L157 261Q163 231 168 200T176 143T181 100T184 84Q184 84 185
100T190 142T198 200T208 262L253 476Q255 489 259 493T281 499T340 500L217 -27Q202 -90 184 -126T140 -178T77 -193ZM116 572Q97 572 87 585T77 632Q77 658 87 673T121 689Q143 689 152 677T160 634Q160 604 149 588T116 572ZM235 572Q216 572 206 585T195 632Q196
658 207 673T240 689Q263 689 271 677T279 634Q279 604 268 588T235 572Z" />
<glyph unicode="&#x2013;" horiz-adv-x="424" d="M37 246Q37 285 39 301T54 317H387Q387 280 385 263T371 246H37Z" />
<glyph unicode="&#x2014;" horiz-adv-x="700" d="M6 246Q6 285 8 301T22 317H694Q694 280 692 263T678 246H6Z" />
<glyph unicode="&#x2018;" horiz-adv-x="175" d="M88 575Q62 575 48 589T34 634Q34 662 42 690T64 742T89 780T109 795Q120 795 129 790T140 772Q131 753 126 737T119 705T116 676Q129 668 134 656T139 627Q139 605 125 590T88 575Z" />
<glyph unicode="&#x2019;" horiz-adv-x="175" d="M66 572Q55 572 47 577T34 595Q45 615 49 631T56 662T59 691Q47 699 42 711T36 740Q36 762 50 777T86 792Q113 792 127 778T141 733Q141 706 132 678T111 626T86 587T66 572Z" />
<glyph unicode="&#x201a;" horiz-adv-x="171" d="M66 -114Q55 -114 47 -109T34 -91Q45 -71 49 -55T56 -24T59 5Q47 13 42 25T36 54Q36 76 50 91T86 106Q113 106 127 92T141 47Q141 20 132 -8T111 -61T86 -99T66 -114Z" />
<glyph unicode="&#x201c;" horiz-adv-x="325" d="M239 575Q213 575 199 589T184 634Q184 662 193 690T214 742T239 780T259 795Q270 795 279 790T291 772Q281 753 276 737T269 705T266 676Q279 668 284 656T289 627Q289 605 275 590T239 575ZM88 575Q62 575 48
589T34 634Q34 662 42 690T64 742T89 780T109 795Q120 795 129 790T140 772Q131 753 126 737T119 705T116 676Q129 668 134 656T139 627Q139 605 125 590T88 575Z" />
<glyph unicode="&#x201d;" horiz-adv-x="325" d="M216 572Q205 572 197 577T184 595Q195 615 199 631T206 662T209 691Q197 699 192 711T186 740Q186 762 200 777T237 792Q263 792 277 778T291 733Q291 706 283 678T261 626T236 587T216 572ZM66 572Q55 572 47
577T34 595Q45 615 49 631T56 662T59 691Q47 699 42 711T36 740Q36 762 50 777T86 792Q113 792 127 778T141 733Q141 706 132 678T111 626T86 587T66 572Z" />
<glyph unicode="&#x201e;" horiz-adv-x="322" d="M216 -114Q205 -114 197 -109T184 -91Q195 -71 199 -55T206 -24T209 5Q197 13 192 25T186 54Q186 76 200 91T237 106Q263 106 277 92T291 47Q291 20 283 -8T261 -61T236 -99T216 -114ZM66 -114Q55 -114 47 -109T34
-91Q45 -71 49 -55T56 -24T59 5Q47 13 42 25T36 54Q36 76 50 91T86 106Q113 106 127 92T141 47Q141 20 132 -8T111 -61T86 -99T66 -114Z" />
<glyph unicode="&#x2022;" horiz-adv-x="223" d="M114 208Q73 208 57 228T41 284Q41 315 60 338T114 361Q155 361 172 340T189 284Q189 252 170 230T114 208Z" />
<glyph unicode="&#x2039;" horiz-adv-x="247" d="M166 0Q166 0 156 15T128 56T92 111T57 169T29 219T18 250Q18 259 28 280T55 329T90 388T125 443T153 484T164 500Q180 500 190 490T206 470T212 459Q212 449 204 430T182 388T153 341T125 296T103 263T94 250Q94
250 102 238T125 206T154 163T183 116T205 75T214 47Q214 47 209 35T193 12T166 0Z" />
<glyph unicode="&#x203a;" horiz-adv-x="247" d="M81 0Q81 0 74 2T57 10T40 25T32 47Q32 56 40 74T63 116T92 162T121 205T143 237T152 250Q152 250 144 262T122 295T94 340T66 388T44 430T35 459Q35 470 42 477T58 490T75 497T83 500Q83 500 93 485T121 444T156
388T190 330T218 280T229 250Q229 241 218 220T191 170T155 112T119 57T92 16T81 0Z" />
</font>
</defs>
</svg>
