<?xml version="1.0" standalone="no"?>
<!DOCTYPE svg PUBLIC "-//W3C//DTD SVG 1.1//EN" "http://www.w3.org/Graphics/SVG/1.1/DTD/svg11.dtd">
<svg xmlns="http://www.w3.org/2000/svg">
<defs >
<font id="YanoneKaffeesatz" horiz-adv-x="405" ><font-face
    font-family="Yanone Kaffeesatz ExtraLight SemiBold"
    units-per-em="1000"
    panose-1="0 0 0 0 0 0 0 0 0 0"
    ascent="735"
    descent="-200"
    alphabetic="0" />
<glyph unicode=" " horiz-adv-x="146" />
<glyph unicode="!" horiz-adv-x="200" d="M51 232L32 676Q32 691 42 696T82 704T175 706L153 280Q152 257 143 247T112 235T51 232ZM100 -8Q62 -8 48 9T34 59Q34 86 51 106T100 127Q138 127 152 109T166 59Q166 32 149 12T100 -8Z" />
<glyph unicode="&quot;" horiz-adv-x="281" d="M45 583Q45 584 42 603T36 651T31 709T27 759T30 781Q36 786 54 786T92 786T125 783Q124 762 122 730T116 665T108 611T101 586Q101 586 87 585T59 584T45 583ZM174 583Q174 584 171 603T165 651T160 709T156 759T159
781Q165 786 183 786T221 786T254 783Q253 762 251 730T245 665T237 611T230 586Q230 586 216 585T188 584T174 583Z" />
<glyph unicode="#" horiz-adv-x="406" d="M233 107L253 487Q254 501 275 503T341 506L321 126Q320 112 300 110T233 107ZM64 107L84 487Q85 501 106 503T173 506L153 126Q152 112 131 110T64 107ZM19 183Q19 230 21 246T38 262H387Q387 217 385 200T368 183H19ZM19
353Q19 400 21 416T38 432H387Q387 387 385 370T368 353H19Z" />
<glyph unicode="$" horiz-adv-x="406" d="M174 -8Q129 -8 100 0T56 18T41 38Q41 44 44 60T53 94T66 122Q82 110 108 102T169 93Q205 93 225 110T245 161Q245 186 235 204T199 252L87 373Q61 402 51 429T41 481Q41 547 85 582T210 617Q266 617 297 611T343 595T357
579Q357 569 352 548T332 509Q324 515 298 521T240 527Q201 527 178 518T154 484Q154 463 162 448T190 410L309 284Q335 257 347 227T359 160Q359 117 344 78T288 16T174 -8ZM146 -123V22H238V-85Q238 -110 215 -116T146 -123ZM165 558V698Q165 723 189 730T258
738V552L165 558Z" />
<glyph unicode="%" horiz-adv-x="675" d="M166 339Q120 339 91 353T46 408T31 526Q31 620 68 664T173 708Q219 708 248 693T291 638T306 527Q306 428 271 384T166 339ZM170 417Q182 417 191 425T206 457T212 526Q212 570 209 592T197 623T172 631Q153 631 141
611T129 525Q129 478 133 455T147 425T170 417ZM171 -8Q171 -8 162 -5T140 3T119 16T109 30L498 709Q498 709 512 703T540 688T554 666Q554 662 538 632T495 554T433 446T363 323T292 200T231 94T188 20T171 -8ZM503 -9Q457 -9 428 5T383 60T368 178Q368 272 405
316T510 360Q556 360 585 345T628 290T643 179Q643 80 608 36T503 -9ZM507 69Q519 69 528 77T543 109T549 178Q549 222 546 244T534 275T509 283Q490 283 478 263T466 177Q466 130 470 107T484 77T507 69Z" />
<glyph unicode="&amp;" horiz-adv-x="493" d="M419 -10Q409 -10 384 12T326 74T256 164T182 269T117 379T71 482T53 568Q53 610 71 640T126 688T220 706Q289 706 331 692T373 655Q373 639 367 617T348 580Q318 602 291 609T233 616Q212 616 196 612T171 595T162
554Q162 529 179 487T225 393T289 289T360 191T430 113T485 71Q482 49 471 31T445 1T419 -10ZM206 -10Q152 -10 116 4T58 43T28 100T19 169Q19 221 41 262T98 334T169 380L212 310Q184 296 165 277T135 232T124 167Q124 150 128 135T142 109T166 92T200 86Q235
86 258 101T294 140T314 194T323 251T325 300Q325 352 320 387T305 448T285 495Q301 500 326 501T373 503T406 504Q426 504 442 504T475 501Q476 501 477 490T478 466Q478 447 472 433T436 419H406Q411 405 415 391T421 353T424 288Q424 258 420 219T402 140T364
66T301 11T206 -10Z" />
<glyph unicode="&apos;" horiz-adv-x="152" d="M45 583Q45 584 42 603T36 651T31 709T27 759T30 781Q36 786 54 786T92 786T125 783Q124 762 122 730T116 665T108 611T101 586Q101 586 87 585T59 584T45 583Z" />
<glyph unicode="(" horiz-adv-x="291" d="M216 -194Q210 -194 193 -176T154 -120T110 -22T75 122T61 319Q61 420 75 499T109 635T152 729T192 784T214 802Q239 802 251 789T271 738Q248 704 229 662T196 569T173 456T165 323Q165 244 173 174T197 48T231 -51T271
-117Q265 -152 254 -173T216 -194Z" />
<glyph unicode=")" horiz-adv-x="291" d="M75 -194Q49 -194 38 -173T20 -117Q42 -86 61 -45T94 50T117 172T125 323Q125 388 118 448T98 562T66 660T20 738Q27 775 39 788T77 802Q82 802 99 785T138 732T181 639T216 503T230 319Q230 216 216 134T181 -9T138 -112T98
-173T75 -194Z" />
<glyph unicode="*" horiz-adv-x="469" d="M145 255Q134 238 117 245T84 270T59 305L181 420Q192 431 202 430T226 411L145 255ZM168 456L13 494Q12 525 23 545T49 572T76 574L198 490Q200 467 191 460T168 456ZM320 240L249 396Q244 409 248 416T276 433L394 306Q405
291 394 277T361 253T320 240ZM219 507L191 665Q190 684 207 689T248 690T289 678L264 526Q261 512 254 507T219 507ZM285 452Q269 473 271 482T286 499L429 584Q445 570 452 548T457 506T438 483L285 452Z" />
<glyph unicode="+" horiz-adv-x="406" d="M28 238Q28 284 30 305T47 326H378Q378 281 376 260T359 238H28ZM159 107V438Q159 452 180 454T247 457V126Q247 112 226 110T159 107Z" />
<glyph unicode="," horiz-adv-x="187" d="M71 -98Q58 -98 48 -93T33 -71Q50 -42 54 -27T60 7Q45 17 40 31T34 64Q34 89 50 106T93 124Q125 124 142 107T159 56Q159 26 149 -2T123 -51T94 -85T71 -98Z" />
<glyph unicode="-" horiz-adv-x="269" d="M32 238Q32 284 34 305T51 326H236Q236 281 234 260T217 238H32Z" />
<glyph unicode="." horiz-adv-x="187" d="M94 -7Q56 -7 42 10T28 60Q28 87 45 107T94 128Q131 128 145 109T160 60Q160 33 143 13T94 -7Z" />
<glyph unicode="/" horiz-adv-x="357" d="M10 -20L234 738Q238 750 244 755T273 763T347 765L123 4Q120 -7 114 -12T84 -18T10 -20Z" />
<glyph unicode="0" horiz-adv-x="406" d="M200 -9Q128 -9 90 27T38 131T23 296Q23 446 65 523T203 600Q299 600 341 532T383 329Q383 217 367 142T311 29T200 -9ZM203 82Q229 82 245 106T268 185T276 329Q276 416 263 463T208 510Q163 510 149 451T134 291Q134
214 139 169T160 103T203 82Z" />
<glyph unicode="1" horiz-adv-x="406" d="M25 0Q24 17 23 34T22 68Q22 75 28 79T45 87T72 92T109 95T154 96L164 496Q150 495 136 494T109 491T86 486T69 483T63 482Q55 496 52 511T48 546Q48 552 63 559T104 573T156 586T208 596T246 600Q253 600 261 599T273
594L261 96H323Q346 96 364 98T383 100Q383 43 381 22T361 0H25Z" />
<glyph unicode="2" horiz-adv-x="406" d="M27 0Q24 8 24 17T23 29Q23 54 28 69T48 112Q74 156 102 194T158 266T207 330T243 388T256 444Q256 463 249 476T227 495T191 502Q170 502 145 498T95 487T55 470Q46 490 44 511T42 545Q42 560 67 572T134 592T221 600Q279
600 312 584T359 537T373 461Q373 423 360 389T325 321T274 253T217 180T158 96H252Q279 96 303 97T345 100T373 104T383 106Q383 43 380 22T360 0H27Z" />
<glyph unicode="3" horiz-adv-x="406" d="M145 -100Q91 -100 66 -86T41 -48Q41 -21 45 -4T54 27Q69 13 94 6T146 -2Q184 -2 210 16T248 69T261 146Q261 175 248 194T214 224T164 239T106 242L105 304Q168 331 200 369T232 446Q232 461 229 474T213 494T173 502Q140
502 107 494T49 470Q40 490 38 511T36 545Q36 567 83 583T210 600Q261 600 291 584T335 541T349 480Q349 438 335 405T298 345T248 300Q283 296 311 279T355 230T372 151Q372 64 342 8T260 -74T145 -100Z" />
<glyph unicode="4" horiz-adv-x="406" d="M216 0V111H54Q34 131 27 158T20 207Q20 217 30 245T58 313T97 396T141 479T184 549T218 590Q228 598 238 602T262 607Q281 607 296 603T321 593L318 206Q344 206 363 208T383 210Q383 210 386 202T388 175Q387 150 380
131T354 111H318V30Q318 15 314 9T288 2T216 0ZM107 206H216L230 466Q215 449 197 416T161 345T128 270T107 206Z" />
<glyph unicode="5" horiz-adv-x="406" d="M142 -100Q81 -100 56 -84T30 -58Q30 -29 32 -12T41 25Q57 9 79 2T130 -5Q177 -5 206 21T250 89T265 170Q265 209 258 234T235 275T193 296T127 303Q102 303 79 299T37 291L67 600H373Q373 563 370 544T356 517T321 510Q311
510 295 510T259 510T222 512T188 513T163 514T154 515L140 382Q148 384 160 385T188 387Q217 387 249 381T309 356T356 298T374 194Q374 105 348 39T270 -64T142 -100Z" />
<glyph unicode="6" horiz-adv-x="406" d="M196 -8Q137 -8 103 14T51 79T30 181T25 318Q25 429 41 503T88 621T160 684T251 703Q278 703 303 700T343 689T359 664Q359 651 357 632T349 592Q331 599 308 603T263 607Q213 607 180 576T133 473T123 280Q121 219 127
181T144 121T170 91T202 82Q228 82 246 102T275 154T285 225Q285 282 268 314T215 346Q183 346 155 324T97 252V340Q123 390 155 415T246 440Q307 440 346 396T385 246Q385 114 337 53T196 -8Z" />
<glyph unicode="7" horiz-adv-x="406" d="M182 -91Q140 -91 118 -89T86 -80T77 -63Q80 -11 93 51T125 179T169 307T217 423T264 514Q238 512 208 511T143 510T66 509Q55 509 49 522T41 557T39 600H399Q336 464 289 344T215 116T182 -91Z" />
<glyph unicode="8" horiz-adv-x="406" d="M211 -7Q143 -7 102 19T43 90T25 185Q25 230 40 267T81 334T140 382L205 414Q229 432 247 451T277 492T288 540Q288 556 283 568T269 590T246 605T216 610Q194 610 176 603T146 579T135 538Q135 514 142 499T162 470Q179
451 209 427T273 375T331 320Q358 290 371 257T385 183Q385 133 366 90T309 20T211 -7ZM204 90Q239 90 262 115T285 185Q285 222 275 241T251 273Q224 303 189 329T119 381T63 436Q48 453 40 478T32 531Q32 589 55 628T116 686T202 706Q240 706 273 698T330 672T369
622T383 544Q383 497 367 462T324 402T270 357L213 325Q188 308 167 289T133 247T120 192Q120 144 143 117T204 90Z" />
<glyph unicode="9" horiz-adv-x="406" d="M133 -104Q94 -104 67 -96T39 -64Q39 -51 42 -31T48 3Q64 -1 82 -4T120 -7Q177 -7 210 19T260 90T280 192T285 309Q285 367 282 406T271 471T249 507T211 519Q172 519 147 483T121 370Q121 313 139 281T192 249Q224 249
253 270T309 342V255Q283 205 251 180T160 155Q120 155 89 179T39 248T21 359Q21 490 69 549T210 609Q263 609 296 594T348 543T373 446T383 291Q381 91 324 -6T133 -104Z" />
<glyph unicode=":" horiz-adv-x="187" d="M94 319Q57 319 43 336T28 385Q28 412 45 432T94 453Q132 453 146 435T161 385Q161 358 144 339T94 319ZM94 -7Q57 -7 43 10T28 60Q28 87 45 107T94 128Q132 128 146 109T161 60Q161 33 144 13T94 -7Z" />
<glyph unicode=";" horiz-adv-x="187" d="M66 -98Q52 -98 42 -93T27 -71Q44 -42 48 -27T55 7Q40 17 34 31T28 64Q28 89 45 106T88 124Q120 124 137 107T154 56Q154 26 144 -2T118 -51T88 -85T66 -98ZM90 319Q53 319 39 336T24 385Q24 412 41 432T90 453Q128 453
142 435T157 385Q157 358 140 339T90 319Z" />
<glyph unicode="&lt;" horiz-adv-x="400" d="M320 84Q310 84 290 91L51 197Q35 226 35 257Q35 274 43 288T67 312L327 437Q343 422 352 404T363 369Q363 347 346 340L167 253L365 162Q365 131 350 108T320 84Z" />
<glyph unicode="=" horiz-adv-x="406" d="M28 336Q28 382 30 403T47 424H378Q378 378 376 357T359 336H28ZM28 140Q28 187 30 207T47 228H378Q378 183 376 162T359 140H28Z" />
<glyph unicode="&gt;" horiz-adv-x="400" d="M77 70Q62 86 53 104T42 138Q42 161 59 168L238 255L40 346Q41 376 55 400T85 424Q95 424 115 416L354 310Q370 282 370 251Q370 234 363 220T337 196L77 70Z" />
<glyph unicode="?" horiz-adv-x="294" d="M85 218Q85 218 80 230T70 263T67 307T81 357Q98 389 114 414T144 460T165 501T173 546Q173 562 169 573T156 592T134 603T104 607Q70 607 52 597T31 585Q23 606 19 626T15 666Q15 681 35 690T86 704T145 710Q179 710
205 700T249 672T275 629T284 572Q284 526 273 492T245 432T210 383T177 332Q167 313 170 292T178 254T177 229Q171 222 155 219T119 216T85 218ZM131 -7Q93 -7 79 10T65 60Q65 87 82 107T131 128Q168 128 182 109T197 60Q197 33 180 13T131 -7Z" />
<glyph unicode="@" horiz-adv-x="725" d="M365 -191Q310 -191 261 -182T172 -147T103 -71T58 61T42 263Q42 372 66 451T136 581T244 656T385 681Q480 681 547 652T649 553T685 362Q685 266 675 201T647 96T608 36T566 8T524 1Q484 1 461 24T429 72L443 114Q457
104 476 97T512 90Q524 90 534 99T553 129T567 179T576 246T579 333Q579 431 563 487T504 566T384 590Q303 590 250 560T172 457T147 250Q147 171 154 113T178 15T218 -47T277 -80T357 -91Q406 -91 446 -87T521 -75T589 -55Q601 -73 608 -91T616 -125Q616 -144
586 -158T500 -182T365 -191ZM363 77Q373 77 379 81T390 98T394 137L397 250Q395 250 390 251T374 252Q360 252 350 244T335 214T330 154Q330 125 332 108T342 84T363 77ZM357 1Q322 1 294 11T249 55T232 158Q233 223 248 258T289 308T342 322Q355 322 370 320T398
309Q398 309 398 329T399 368Q400 384 395 393T380 406T355 410Q326 410 305 405T261 386Q254 401 252 420T250 445Q251 459 259 467Q271 475 302 485T387 495Q441 495 469 471T496 381L492 191Q491 155 490 126T486 75Q485 57 478 45T468 30Q462 18 434 10T357
1Z" />
<glyph unicode="A" horiz-adv-x="437" d="M67 -2Q58 -2 40 -1T3 2L174 684Q177 702 214 702Q227 702 240 701T262 699L433 17Q435 8 427 3T388 -2Q378 -2 363 -2T328 0L249 366Q243 395 237 428T227 494T220 556Q217 528 212 495T202 428T190 366L114 18Q112 8
105 3T67 -2ZM113 165V257H343V165H113Z" />
<glyph unicode="B" horiz-adv-x="364" d="M34 0V680Q34 690 40 695T62 700H160Q192 700 221 694T275 670T314 623T329 544Q329 491 315 457T279 405T236 383Q253 382 273 376T311 354T340 310T352 238Q352 195 345 159T322 93T284 43T232 11T164 0H34ZM138 89H166Q181
89 192 98T212 124T225 168T230 229Q230 265 226 285T214 317T195 331T168 335H138V89ZM138 421H167Q182 421 193 433T210 468T216 522Q216 559 210 578T193 604T169 611H138V421Z" />
<glyph unicode="C" horiz-adv-x="330" d="M190 -10Q158 -10 132 -2T85 26T51 84T30 181T23 325Q23 425 35 493T67 604T113 670T167 701T222 710Q263 710 283 702T310 680T317 652Q317 634 313 618T302 590Q296 595 288 599T269 606T246 610Q228 610 211 604T180
580T154 531T137 451T131 333Q131 264 136 220T152 150T178 115T216 104Q241 104 263 109T298 124Q304 112 308 96T312 63Q312 42 298 25T256 -1T190 -10Z" />
<glyph unicode="D" horiz-adv-x="369" d="M35 0V680Q35 690 40 695T62 700H159Q208 700 245 686T306 638T342 542T354 385Q354 282 343 209T308 89T248 22T162 0H35ZM137 97H165Q179 97 192 107T215 148T231 238T237 396Q237 464 232 505T218 569T196 599T164
607H137V97Z" />
<glyph unicode="E" horiz-adv-x="306" d="M35 0V681Q35 681 37 690T54 700H293Q293 659 293 640T288 615T275 609H137V91H287Q287 49 287 30T282 5T269 0H35ZM44 333V426H267Q267 369 265 351T249 333H44Z" />
<glyph unicode="F" horiz-adv-x="301" d="M35 0V681Q35 681 37 690T54 700H293Q293 659 293 641T288 618T275 613H137V19Q137 19 136 10T120 0H35ZM44 333V426H267Q267 369 265 351T249 333H44Z" />
<glyph unicode="G" horiz-adv-x="374" d="M213 -10Q158 -10 122 5T64 58T33 161T23 329Q23 449 38 524T81 639T149 695T241 710Q294 710 322 693T350 654Q350 637 346 620T337 589Q325 598 305 604T263 610Q225 610 200 596T160 550T139 466T133 337Q133 257 137
208T152 134T177 99T215 90Q227 90 235 92T248 98T255 104V336H200V401Q200 420 223 420H351L350 25Q336 16 315 8T269 -5T213 -10Z" />
<glyph unicode="H" horiz-adv-x="391" d="M254 0V681Q254 691 258 694T283 699T356 700V19Q356 9 352 6T327 1T254 0ZM35 0V681Q35 691 39 694T64 699T137 700V19Q137 9 134 6T109 1T35 0ZM84 326V422H299L300 326H84Z" />
<glyph unicode="I" horiz-adv-x="173" d="M34 0V655Q34 678 38 687T65 698T138 700V19Q138 9 134 6T108 1T34 0Z" />
<glyph unicode="J" horiz-adv-x="301" d="M120 -9Q75 -9 52 0T20 24T11 55Q11 75 16 88T25 112Q39 101 61 91T106 81Q131 81 142 90T158 122T162 183V655Q162 678 167 687T193 698T266 700V162Q266 122 259 90T234 36T190 3T120 -9Z" />
<glyph unicode="K" horiz-adv-x="388" d="M323 -2Q306 -2 288 -1T251 1Q247 51 242 96T229 181T206 253T170 310Q158 323 144 330T114 340V356L261 694Q280 698 297 699T327 701Q381 701 370 674L241 400Q297 351 328 254T366 20Q366 8 358 3T323 -2ZM33 0V681Q33
691 37 694T63 699T136 700V19Q136 9 132 6T106 1T33 0Z" />
<glyph unicode="L" horiz-adv-x="303" d="M34 0V673Q34 687 38 692T64 699T137 700V96H288V19Q288 7 283 4T269 0H34Z" />
<glyph unicode="M" horiz-adv-x="481" d="M212 163L163 309Q160 320 154 344T139 400T122 463T106 524T95 569T90 586L130 700L214 436Q221 415 226 396T234 363T240 340T242 331Q242 331 244 339T249 363T257 396T268 433L343 681L390 584Q390 584 386 568T374
524T359 464T341 400T326 345T315 309L265 170Q263 163 254 163H212ZM34 0V681Q34 695 40 697T53 700H130L135 530L107 505Q107 505 109 494T113 461T119 412T125 351T130 282T133 209L135 19Q135 9 130 6T104 1T34 0ZM342 0L346 207Q347 244 349 279T355 348T360
411T365 461T370 494T372 507L343 529V681Q346 691 349 695T362 700Q404 700 421 700T442 700T446 700V19Q446 9 442 6T416 1T342 0Z" />
<glyph unicode="N" horiz-adv-x="435" d="M303 0L194 270Q186 292 177 322T157 388T139 456T123 518T112 563T107 580L48 640L53 700H133L240 435Q249 412 259 380T279 314T297 247T312 187T323 144T327 128L389 60L381 0H303ZM34 0V681Q34 700 53 700L136 681L121
529Q124 510 125 488T129 440T132 389T134 340T135 296T136 260V19Q136 9 132 6T106 1T34 0ZM381 0L298 19L312 192Q309 212 307 234T304 280T302 326T300 371T299 412T298 447V681Q298 691 302 694T328 699T400 700V19Q400 0 381 0Z" />
<glyph unicode="O" horiz-adv-x="415" d="M203 -10Q155 -10 121 6T65 62T33 173T23 354Q23 489 44 566T107 677T214 710Q263 710 297 693T352 637T382 529T392 358Q392 218 372 138T311 24T203 -10ZM209 96Q237 96 252 121T274 204T281 354Q281 446 276 501T257
580T213 604Q185 604 169 578T146 492T139 331Q139 248 144 196T165 120T209 96Z" />
<glyph unicode="P" horiz-adv-x="353" d="M66 275Q49 275 47 280T45 301V680Q45 681 45 690T61 700H149Q212 700 254 682T318 619T340 497Q340 431 325 388T282 320T222 285T152 275H66ZM34 0V681Q34 691 37 695T53 700H117Q132 700 134 691T136 681V19Q136 9
132 6T106 1T34 0ZM136 369H164Q184 369 197 380T218 422T226 509Q226 542 221 565T203 599T170 611H136V369Z" />
<glyph unicode="Q" horiz-adv-x="415" d="M320 -141Q262 -141 227 -106T173 5L290 31Q295 -15 305 -35T341 -56Q353 -56 369 -53T401 -39Q409 -50 412 -66T415 -93Q415 -113 398 -123T359 -137T320 -141ZM203 -10Q155 -10 121 6T65 62T33 173T23 354Q23 489 44
566T107 677T214 710Q263 710 297 693T352 637T382 529T392 358Q392 218 372 138T311 24T203 -10ZM209 96Q237 96 252 121T274 204T281 354Q281 446 276 501T257 580T213 604Q185 604 169 578T146 492T139 331Q139 248 144 196T165 120T209 96Z" />
<glyph unicode="R" horiz-adv-x="367" d="M66 275Q49 275 47 280T45 301V680Q45 681 45 690T61 700H149Q212 700 254 682T318 619T340 497Q340 431 325 388T282 320T222 285T152 275H66ZM34 0V681Q34 681 36 690T53 700H117Q132 700 134 691T136 681V19Q136 9
132 6T106 1T34 0ZM301 -3Q289 -3 274 -2T241 0Q238 87 224 145T193 236T164 283T151 297Q151 297 149 304T158 317L215 349Q230 349 234 339Q234 339 251 322T290 267T331 169T353 21Q353 8 346 3T301 -3ZM136 369H164Q184 369 197 380T218 421T226 502Q226 539
221 563T203 599T170 611H136V369Z" />
<glyph unicode="S" horiz-adv-x="348" d="M150 -10Q83 -10 51 10T19 55Q19 70 24 90T42 128Q58 114 83 105T139 95Q184 95 202 118T220 180Q220 208 210 233T171 294L77 414Q43 459 31 492T19 560Q19 627 63 668T195 710Q269 710 299 695T329 656Q329 643 324
628T305 598Q296 605 271 612T214 620Q175 620 152 606T129 563Q129 538 139 518T169 471L269 348Q306 302 318 265T331 183Q331 133 315 89T260 18T150 -10Z" />
<glyph unicode="T" horiz-adv-x="378" d="M136 0V689Q136 689 138 689T155 690H219Q233 690 235 690T238 689V19Q238 9 234 6T208 1T136 0ZM9 604V681Q9 700 28 700H368V623Q368 612 364 608T349 604H9Z" />
<glyph unicode="U" horiz-adv-x="419" d="M214 -10Q154 -10 119 6T65 51T40 116T34 196V680Q34 691 38 694T65 699T140 700V192Q140 167 142 147T153 112T176 91T214 84Q234 84 252 88T281 98V680Q281 691 285 694T311 699T385 700V27Q367 15 322 3T214 -10Z" />
<glyph unicode="V" horiz-adv-x="420" d="M188 -6Q163 -6 149 10T130 52Q120 93 108 153T82 284T55 422T31 548T14 639T7 673Q4 688 6 694T30 700H115L175 354Q184 307 190 257T203 162T213 85Q217 117 222 161T233 256T247 354L300 672Q302 687 307 693T326 700H415L276
-1Q254 -4 236 -5T188 -6Z" />
<glyph unicode="W" horiz-adv-x="664" d="M448 -7Q424 -7 412 9T393 54L361 200Q355 234 349 278T338 369T329 456T323 520T321 544L289 642Q286 657 292 663T312 669H378L436 354Q445 307 450 262T459 178T465 106H472Q475 158 481 225T497 354L546 672Q548 687
552 693T571 700H659L536 -1Q516 -3 504 -4T480 -6T448 -7ZM166 -6Q147 -6 135 12T117 56Q108 98 97 158T74 288T49 425T28 549T13 639T7 673Q4 688 8 694T29 700H115L171 354Q179 307 184 262T193 178T200 106H207Q209 171 215 233T232 354L281 641Q283 656 287
662T306 669H351Q370 669 372 662T373 642L338 543Q338 543 336 519T330 455T321 369T310 279T299 200L263 -1Q237 -4 218 -5T166 -6Z" />
<glyph unicode="X" horiz-adv-x="422" d="M8 0L159 386L214 423Q214 423 219 449T235 514T258 592L288 683Q291 692 296 695T323 699T397 700L259 313L217 302Q217 302 210 274T190 205T161 122L117 13Q110 0 96 0H8ZM287 0L244 122Q230 163 218 204T198 274T190
302L156 338L35 683Q32 692 37 695T70 699T156 700L189 592Q201 552 211 514T226 449T232 423L269 403L410 15Q414 9 412 5T399 0H287Z" />
<glyph unicode="Y" horiz-adv-x="367" d="M216 223H156L6 684Q3 693 7 696T37 699T122 700L155 567Q160 547 165 520T176 463T185 410T190 369Q192 385 195 409T204 463T215 520T226 568L253 682Q256 691 261 694T289 699T363 700L216 223ZM135 0V358H237V19Q237
9 233 6T208 1T135 0Z" />
<glyph unicode="Z" horiz-adv-x="379" d="M29 0Q23 6 19 16T15 39Q15 50 17 60T23 83L240 610H75Q64 610 51 609T29 605V680Q29 700 48 700H348Q353 694 355 687T357 668Q357 647 348 623L126 90H294Q312 90 328 92T358 100V19Q358 10 355 5T339 0H29Z" />
<glyph unicode="[" horiz-adv-x="361" d="M98 -200V791Q98 804 101 810T121 818T176 821H353Q353 779 352 759T344 732T323 726H202V-104H353Q353 -151 352 -171T343 -195T322 -200H98Z" />
<glyph unicode="\" horiz-adv-x="350" d="M236 -30L12 738Q8 750 12 755T39 763T113 765L338 -6Q342 -17 338 -22T311 -28T236 -30Z" />
<glyph unicode="]" horiz-adv-x="361" d="M8 -200Q8 -158 9 -138T18 -111T39 -105H160V726H9Q9 774 11 794T19 818T39 822H263V-170Q263 -182 260 -188T241 -197T185 -200H8Z" />
<glyph unicode="^" horiz-adv-x="430" d="M87 204Q65 204 54 221T41 256L222 408L371 281Q381 274 384 266T388 249Q388 231 375 218T340 201L211 276L115 214Q104 208 98 206T87 204Z" />
<glyph unicode="_" horiz-adv-x="372" d="M11 -121Q11 -75 13 -54T30 -33H361Q361 -79 359 -100T342 -121H11Z" />
<glyph unicode="`" horiz-adv-x="277" d="M188 544Q182 546 163 558T120 586T77 617T49 642Q53 667 65 692T96 717Q100 717 115 706T151 677T192 638T228 599Q228 599 224 586T211 558T188 544Z" />
<glyph unicode="a" horiz-adv-x="343" d="M165 -10Q137 -10 112 -5T66 15T35 62T23 145Q23 196 33 228T60 279T99 303T144 309Q156 309 176 307T211 295Q211 295 211 307T211 336T211 367Q211 384 206 393T191 407T162 412Q131 412 97 406T38 390Q30 406 28 422T25
449Q25 458 28 467T37 482Q49 490 89 500T188 510Q255 510 284 483T313 388V339Q313 282 313 223T312 112T308 23Q284 9 248 0T165 -10ZM173 74Q183 74 193 77T208 86Q209 99 210 123T211 175T211 226Q204 231 195 232T178 234Q168 234 159 231T144 218T134 191T130
148Q130 126 132 113T140 90T154 78T173 74Z" />
<glyph unicode="b" horiz-adv-x="371" d="M156 -10Q116 -10 86 -2T39 20V689Q39 712 47 721T76 733T141 735V479Q158 494 181 502T233 510Q273 510 298 491T336 427T349 309Q349 223 338 166T306 73T261 20T209 -4T156 -10ZM171 80Q180 80 191 87T211 117T227
181T234 290Q234 338 229 366T213 407T186 419Q174 419 163 415T141 400V89Q146 85 153 83T171 80Z" />
<glyph unicode="c" horiz-adv-x="298" d="M172 -10Q134 -10 106 0T60 36T32 112T23 239Q23 329 39 383T82 464T139 501T202 510Q238 510 261 497T285 461Q285 451 283 437T275 406Q263 411 246 415T210 420Q196 420 182 415T156 391T137 336T130 240Q130 194 133
163T146 114T169 88T204 80Q223 80 242 85T273 97Q278 80 280 68T282 43Q282 19 251 5T172 -10Z" />
<glyph unicode="d" horiz-adv-x="365" d="M186 -10Q153 -10 124 -3T72 29T36 101T23 229Q23 330 42 392T93 482T166 510Q187 510 202 505T229 491V690Q229 713 236 722T266 733T331 735V20Q306 9 270 0T186 -10ZM187 80Q199 80 209 83T229 92V415Q223 419 216
420T200 422Q190 422 179 417T159 394T144 339T138 241Q138 192 141 161T150 112T165 87T187 80Z" />
<glyph unicode="e" horiz-adv-x="349" d="M180 -10Q145 -10 117 0T67 36T35 108T23 225Q23 317 37 373T76 459T133 499T200 510Q260 510 293 472T327 348Q327 313 325 276T314 210Q283 203 244 200T168 196T108 194T84 194L85 276Q85 276 101 276T140 275T186
277T223 285Q226 295 227 311T228 339Q228 389 219 405T186 421Q172 421 161 411T143 378T133 319T129 231Q129 192 132 165T144 122T166 97T203 89Q232 89 259 97T312 118Q317 104 319 85T321 50Q321 31 302 18T250 -3T180 -10Z" />
<glyph unicode="f" horiz-adv-x="260" d="M74 0V415H11Q11 455 12 473T18 495T36 500H74V558Q74 616 89 652T130 706T185 731T246 738Q292 738 317 726T343 690Q343 678 341 663T333 634Q314 643 296 645T264 647Q245 647 229 644T201 633T183 609T176 568V500H253Q253
461 252 443T247 420T234 415H176V19Q176 18 174 9T157 0H74Z" />
<glyph unicode="g" horiz-adv-x="386" d="M175 -196Q108 -196 73 -179T26 -136T14 -85Q14 -49 34 -20T86 32T156 65L190 35Q172 28 156 13T130 -20T120 -59Q120 -73 125 -83T145 -98T186 -103Q228 -103 245 -81T262 -37Q262 -19 255 -8T223 10T148 20Q111 23 84
30T42 52T28 86Q29 103 38 120T65 156T112 195L173 175Q171 174 162 165T145 145T137 123Q137 110 165 108T234 98Q276 92 305 79T350 41T366 -23Q366 -70 347 -109T285 -172T175 -196ZM187 154Q128 154 94 176T46 237T31 325Q31 394 51 434T110 492T199 510Q212
510 227 507T257 498L276 453Q309 438 329 406T349 321Q349 267 333 230T281 174T187 154ZM192 230Q210 230 222 240T240 277T246 347Q246 397 234 417T195 437Q179 437 166 427T146 394T139 329Q139 294 143 272T159 240T192 230ZM346 414Q331 414 309 420T263
436T226 452T211 459L212 501H368Q373 493 376 481T379 452Q379 432 370 423T346 414Z" />
<glyph unicode="h" horiz-adv-x="367" d="M37 0V690Q37 713 45 722T75 733T139 735V474Q158 492 185 501T239 510Q280 510 300 495T328 452T335 380V19Q335 9 330 6T302 1T230 0V349Q230 375 224 395T189 416Q178 416 165 413T139 399V19Q139 9 135 6T110 1T37 0Z" />
<glyph unicode="i" horiz-adv-x="178" d="M37 0V455Q37 478 46 487T77 498T141 500V19Q141 9 137 6T111 1T37 0ZM343 553Q319 553 306 569T293 628Q293 660 306 680T349 700Q378 700 388 685T398 632Q398 595 384 574T343 553Z" />
<glyph unicode="j" horiz-adv-x="186" d="M11 -197Q-47 -197 -70 -183T-94 -139Q-94 -125 -91 -112T-80 -88Q-63 -96 -44 -100T-4 -104Q17 -104 27 -96T41 -71T45 -22V455Q45 478 53 487T84 498T147 500V-36Q147 -79 137 -115T97 -174T11 -197ZM347 553Q323 553
310 569T297 628Q297 660 310 680T353 700Q382 700 392 685T402 632Q402 595 388 574T347 553Z" />
<glyph unicode="k" horiz-adv-x="366" d="M37 0V690Q37 713 45 722T76 733T140 735V476Q162 490 191 500T252 510Q286 510 304 498T329 466T336 425Q336 396 330 372T313 328T291 295T270 272Q295 256 312 229T339 167T351 90Q351 73 351 54T348 17Q347 9 342
5T313 1T232 0Q234 29 235 56T235 108Q233 137 229 159T217 197T198 219T173 223Q164 221 157 218T145 211T140 207V19Q140 9 136 6T111 1T37 0ZM140 277Q166 289 184 304T212 340T222 387Q222 419 196 419Q181 419 167 410T140 384V277Z" />
<glyph unicode="l" horiz-adv-x="177" d="M37 0V690Q37 713 45 722T76 733T139 735V19Q139 9 135 6T110 1T37 0Z" />
<glyph unicode="m" horiz-adv-x="541" d="M37 0V477Q68 491 107 500T190 510Q250 510 278 481T315 398T324 268V19Q324 9 319 6T293 1T222 0V374Q222 394 220 404T210 418T187 422Q175 422 163 419T139 408V19Q139 9 134 6T108 1T37 0ZM222 0V426Q224 450 252
469T319 499T395 510Q446 510 470 494T501 447T508 372V19Q508 9 503 6T477 1T406 0V371Q406 398 399 409T370 420Q358 420 346 418T324 408V19Q324 9 320 6T295 1T222 0Z" />
<glyph unicode="n" horiz-adv-x="368" d="M37 0V477Q54 485 81 492T138 505T193 510Q245 510 276 498T321 458T336 380V19Q336 9 331 6T304 1T230 0V348Q230 390 223 406T189 422Q177 422 163 419T139 408V19Q139 9 135 6T109 1T37 0Z" />
<glyph unicode="o" horiz-adv-x="366" d="M180 -10Q141 -10 111 -1T62 36T32 115T22 251Q22 387 66 448T188 510Q242 510 276 489T327 411T344 254Q344 111 303 51T180 -10ZM183 75Q197 75 208 87T225 137T232 252Q232 327 228 364T213 413T185 425Q170 425 159
412T141 362T134 251Q134 192 137 156T146 103T161 81T183 75Z" />
<glyph unicode="p" horiz-adv-x="368" d="M86 -197Q60 -197 49 -188T37 -153V471Q67 489 105 499T185 510Q233 510 269 493T325 432T346 306Q346 225 339 170T319 79T289 24T251 -2T209 -10Q186 -10 169 -5T139 12V-189Q127 -192 113 -194T86 -197ZM176 80Q185
80 194 87T213 115T227 181T232 298Q232 350 227 376T210 412T179 422Q157 422 139 408V103Q147 91 156 86T176 80Z" />
<glyph unicode="q" horiz-adv-x="371" d="M276 -198Q264 -198 253 -197T232 -194V27Q221 9 201 0T151 -10Q127 -10 105 -1T64 31T34 99T23 216Q23 303 40 360T86 450T152 496T230 510Q264 510 289 503T336 480V-153Q336 -183 325 -190T276 -198ZM189 79Q204 79
215 89T232 119V411Q227 416 220 419T203 422Q183 422 169 405T147 343T139 220Q139 177 143 149T153 106T169 85T189 79Z" />
<glyph unicode="r" horiz-adv-x="254" d="M37 0V465Q64 484 99 497T175 510Q215 510 229 499T243 463Q243 453 241 437T232 403Q222 408 212 410T192 412Q181 412 167 408T142 394L141 19Q141 9 137 6T111 1T37 0Z" />
<glyph unicode="s" horiz-adv-x="327" d="M141 -10Q91 -10 57 2T23 46Q23 57 26 72T39 104Q61 93 84 87T130 81Q160 81 175 94T191 130Q191 144 186 159T163 193L73 282Q45 310 34 337T22 388Q22 423 38 450T90 494T187 510Q241 510 267 500T302 475T310 449Q310
423 290 399Q269 411 247 416T200 422Q172 422 158 413T143 386Q143 377 148 365T175 333L255 257Q286 224 297 197T308 132Q308 66 263 28T141 -10Z" />
<glyph unicode="t" horiz-adv-x="286" d="M176 -10Q132 -10 111 7T82 56T75 134V413H12Q12 452 13 470T18 494T33 500H75V647Q75 664 83 670T114 678T177 680V500H265Q265 461 265 443T260 419T245 413H177V135Q177 121 178 107T185 85T205 77Q220 77 232 80T259
90Q261 81 263 69T265 41Q265 19 251 8T216 -6T176 -10Z" />
<glyph unicode="u" horiz-adv-x="368" d="M184 -10Q125 -10 93 8T47 60T34 145V481Q34 491 38 494T64 499T140 500V138Q140 118 143 105T155 85T184 78Q195 78 208 81T231 93V481Q231 491 235 494T260 499T333 500V27Q308 13 268 2T184 -10Z" />
<glyph unicode="v" horiz-adv-x="335" d="M146 -5Q127 -5 118 9T103 44L13 470Q10 485 13 491T41 498T123 500L146 351Q151 317 155 275T164 195T170 132T172 107H174Q174 107 176 131T181 194T189 275T199 351L217 479Q219 490 223 494T250 499T325 500L220 -1Q205
-4 183 -4T146 -5Z" />
<glyph unicode="w" horiz-adv-x="531" d="M354 -5Q339 -5 323 6T301 45L290 112Q285 143 281 181T274 257T269 328T266 380T265 400L252 453Q251 462 256 475T271 489H322L358 270Q362 250 365 223T370 171T374 130T376 113H383Q385 146 388 188T396 274T405 353L424
479Q425 490 430 494T456 499T522 500Q522 500 517 473T504 402T485 303T463 196T443 98T428 26T420 -1Q420 -1 404 -3T354 -5ZM142 -5Q124 -5 114 9T99 44Q92 74 83 117T64 209T44 307T26 394T14 456T9 480Q8 491 14 494T44 499T122 500L144 353Q150 315 155 273T163
195T168 136T170 113H177Q178 129 180 155T186 213T194 270L222 468Q224 481 229 485T255 489H282Q294 489 292 483T284 468T276 453L275 402Q275 402 275 382T272 330T266 258T259 181T249 112L229 -1Q229 -1 215 -2T180 -4T142 -5Z" />
<glyph unicode="x" horiz-adv-x="389" d="M10 0L143 277L196 314Q196 314 203 335T221 386T243 441L263 483Q266 492 272 495T301 499T374 500L236 222L197 211Q197 211 192 195T178 154T159 102T139 53L123 19Q120 10 111 6T79 1T10 0ZM261 0L236 54Q225 75 215
101T195 153T180 194T174 210L151 224L26 483Q22 492 25 495T52 499T134 500L161 441Q171 417 182 388T200 336T208 314L245 294L375 22Q381 11 377 7T348 1T261 0Z" />
<glyph unicode="y" horiz-adv-x="345" d="M80 -193Q28 -193 10 -180T-9 -147Q-9 -133 -6 -117T4 -91Q14 -97 32 -102T71 -107Q91 -107 106 -88T128 -16L16 473Q13 487 15 492T40 499T116 500L153 306Q159 274 163 240T171 177T176 130T179 112Q179 112 180 130T185
176T192 239T201 306L228 471Q230 486 235 491T263 498T336 500L221 -24Q207 -89 189 -126T145 -178T80 -193Z" />
<glyph unicode="z" horiz-adv-x="311" d="M31 0Q31 0 22 12T13 50Q13 60 15 68T22 87L183 415H95Q74 415 55 414T21 410Q18 426 18 438T18 457Q18 480 25 490T50 500H288Q288 500 293 493T298 470Q298 463 296 451T286 421L133 94H199Q235 94 257 98T292 107Q294
99 295 85T296 63Q295 32 288 16T255 0H31Z" />
<glyph unicode="{" horiz-adv-x="269" d="M213 -149Q138 -149 108 -113T78 -14Q78 37 85 79T92 174Q92 212 80 228T40 250Q36 261 34 271T32 291Q32 325 51 339Q63 347 72 356T86 382T92 430Q92 481 85 532T78 625Q78 666 98 692T153 731T233 744Q243 729 248
713T253 680Q253 650 237 645Q218 644 206 634T188 607T183 570Q183 535 187 490T191 397Q191 350 178 330T142 299Q166 289 178 269T191 204Q191 157 187 115T183 36Q183 4 189 -15T210 -43T245 -55Q247 -67 247 -76T248 -94Q248 -119 239 -134T213 -149Z" />
<glyph unicode="|" horiz-adv-x="299" d="M98 -200V788Q98 801 102 806T128 813T202 815V-176Q202 -188 198 -193T171 -199T98 -200Z" />
<glyph unicode="}" horiz-adv-x="269" d="M36 -149Q27 -136 22 -119T17 -86Q17 -55 34 -52Q53 -49 65 -39T82 -13T88 24Q88 60 84 104T79 197Q79 245 91 265T127 295Q104 305 92 325T79 391Q79 438 83 480T88 559Q88 591 81 609T60 637T25 650Q23 662 22 671T21
689Q21 713 30 728T57 744Q132 744 161 707T191 608Q191 558 184 516T177 420Q177 382 189 365T229 343Q234 333 236 323T238 304Q238 286 233 274T218 256Q207 247 198 238T183 213T177 164Q177 112 184 61T191 -31Q191 -71 171 -97T116 -136T36 -149Z" />
<glyph unicode="~" horiz-adv-x="400" d="M259 203Q234 203 218 209T190 223T166 236T136 242Q118 242 103 234T75 216T49 207Q34 208 23 225T10 271Q19 285 39 299T87 324T145 334Q171 334 186 328T213 315T236 301T268 295Q286 295 303 304T332 326Q356 340
373 321T392 267Q383 254 364 239T318 214T259 203Z" />
<glyph unicode="&#xa0;" horiz-adv-x="146" />
<glyph unicode="&#xa1;" horiz-adv-x="200" d="M32 -197L54 226Q56 248 64 258T94 271T156 273L175 -167Q176 -181 166 -187T125 -195T32 -197ZM106 373Q69 373 55 391T40 441Q40 468 57 487T106 507Q144 507 158 490T172 441Q172 414 155 394T106 373Z" />
<glyph unicode="&#xa2;" horiz-adv-x="406" d="M243 -10Q203 -10 173 -5T120 24T87 95T76 231Q76 321 91 375T133 459T191 499T254 510Q284 510 310 499T337 474Q337 472 337 460T334 431T327 401Q315 407 298 411T263 416Q248 416 233 411T205 388T185 334T178
236Q178 183 182 153T195 107T218 88T254 84Q270 84 291 89T325 101Q330 87 332 68T334 38Q334 26 321 15T287 -3T243 -10ZM171 -128V17H264V-90Q264 -115 241 -121T171 -128ZM197 494V574Q197 599 221 607T290 616V494H197Z" />
<glyph unicode="&#xa3;" horiz-adv-x="352" d="M81 0Q78 49 75 104T71 216T69 318Q69 393 79 445T111 531T162 579T231 595Q257 595 279 590T316 572T331 537Q331 520 328 507T319 476Q305 484 290 488T257 492Q238 492 222 485T195 461T178 412T171 334Q171 259
172 206T178 100L313 93Q318 80 319 68T321 46Q321 31 315 21T299 5T272 0H81ZM15 276Q15 322 17 342T34 363H287Q287 318 285 297T269 276H15Z" />
<glyph unicode="&#xa4;" horiz-adv-x="591" d="M297 43Q190 43 143 96T95 269Q95 394 143 449T300 504Q405 504 450 452T496 283Q496 157 449 100T297 43ZM71 -22Q39 11 26 27T22 54L142 174L189 96L71 -22ZM137 361L8 490Q41 522 58 535T84 539L183 440L137 361ZM507
-8L407 91L458 165L582 41Q550 8 534 -5T507 -8ZM300 128Q351 128 374 164T398 284Q398 357 376 388T304 420Q247 420 222 384T196 266Q196 193 220 161T300 128ZM458 366L410 443L520 552Q552 520 566 504T569 477L458 366Z" />
<glyph unicode="&#xa5;" horiz-adv-x="406" d="M174 223L24 684Q22 693 26 696T55 699T140 700L172 567Q177 547 182 524T193 477T201 432T205 396Q207 411 210 432T218 476T229 524T240 568L271 682Q274 691 279 694T307 699T381 700L234 223H174ZM28 173Q28
219 34 238T66 257H173V173H28ZM153 0V358H255V19Q255 9 251 6T226 1T153 0ZM28 342Q28 388 34 407T66 426H158V342H28ZM236 173V257H381Q381 212 375 193T343 173H236ZM240 342V426H381Q381 381 375 362T343 342H240Z" />
<glyph unicode="&#xa6;" horiz-adv-x="228" d="M112 -198Q104 -198 90 -197T63 -192V185Q63 209 74 217T116 226Q128 226 141 225T165 219V-162Q165 -184 156 -191T112 -198ZM112 322Q104 322 90 323T63 328V703Q63 726 74 735T116 744Q128 744 141 742T165 736V359Q165
336 156 329T112 322Z" />
<glyph unicode="&#xa7;" horiz-adv-x="332" d="M198 190L174 283Q189 288 199 302T209 326Q209 341 203 354T184 383Q172 401 152 416T109 449T69 493Q51 519 44 538T37 580Q37 620 58 647T114 688T192 703Q241 703 265 689T296 660Q299 650 299 639Q299 623 294
607T282 576Q268 586 250 590T211 594Q183 594 169 584T154 558Q154 547 160 536T180 508Q191 496 207 479T242 441T273 402Q288 381 295 362T303 316Q303 296 293 271T260 224T198 190ZM138 -4Q89 -4 65 10T34 40Q31 44 31 50T31 60Q31 94 48 123Q63 114 80 110T118
105Q147 105 161 115T175 141Q175 153 169 164T149 191Q138 203 122 221T88 258T56 297Q42 318 34 337T26 383Q26 404 36 429T68 475T130 509L155 415Q138 411 130 398T121 374Q121 359 127 346T146 316Q158 299 178 284T221 250T261 206Q279 181 286 162T293 119Q293
79 272 52T216 11T138 -4Z" />
<glyph unicode="&#xa8;" horiz-adv-x="277" d="M72 556Q51 557 38 571T25 628Q25 659 38 678T79 697Q105 697 115 682T126 632Q126 596 113 576T72 556ZM199 556Q176 557 164 571T151 628Q151 659 164 678T205 697Q232 697 242 682T252 632Q251 596 238 576T199 556Z" />
<glyph unicode="&#xa9;" horiz-adv-x="477" d="M235 319Q184 319 146 332T83 373T45 442T33 542Q33 654 88 706T245 759Q313 759 357 738T422 670T444 544Q444 437 391 378T235 319ZM247 422Q217 422 198 429T170 461T161 533Q161 576 169 602T191 641T221 659T253
664Q267 664 281 659T296 647Q296 643 295 631T291 611Q284 614 275 615T258 617Q248 617 239 612T223 589T216 531Q216 502 220 489T232 473T253 469Q261 469 271 472T288 476Q292 469 293 458T294 443Q294 434 280 428T247 422ZM236 391Q271 391 301 405T349
453T368 545Q368 594 355 627T315 676T243 693Q184 693 146 661T108 544Q108 487 123 454T166 406T236 391Z" />
<glyph unicode="&#xaa;" horiz-adv-x="313" d="M146 288Q117 288 91 296T49 331T33 412Q33 458 46 486T82 525T136 537Q151 537 167 535T195 528V569Q195 591 188 602T168 617T141 621Q117 621 94 615T52 601Q42 614 40 637T47 673Q60 690 90 700T171 710Q205
710 229 699T266 664T279 604V317Q257 307 221 298T146 288ZM159 359Q169 359 179 362T195 368V460Q189 463 180 464T164 466Q150 466 139 463T121 448T114 411Q114 391 120 380T136 364T159 359Z" />
<glyph unicode="&#xab;" horiz-adv-x="415" d="M154 0Q154 0 144 15T117 55T82 109T48 167T21 218T10 251Q10 261 20 283T47 333T81 390T116 445T142 485T153 500Q173 500 186 488T206 462T213 448Q213 436 206 417T186 376T159 332T133 292T113 262T105 251Q105
251 113 240T133 212T160 173T186 129T207 89T215 58Q215 58 208 43T187 14T154 0ZM332 26Q332 26 322 40T295 75T261 123T227 175T200 220T190 251Q190 261 200 281T226 326T260 378T294 426T320 462T331 476Q350 476 362 465T382 441T389 428Q389 415 379 393T353
347T323 301T297 265T286 251Q286 251 296 238T322 204T353 160T380 115T391 81Q391 81 384 67T364 40T332 26Z" />
<glyph unicode="&#xac;" horiz-adv-x="400" d="M42 222Q34 246 34 269Q34 289 41 303T65 318H359V222H42ZM313 103Q293 103 279 110T264 134V318H359V111Q337 103 313 103Z" />
<glyph unicode="&#xad;" horiz-adv-x="269" d="M32 238Q32 284 34 305T51 326H236Q236 281 234 260T217 238H32Z" />
<glyph unicode="&#xae;" horiz-adv-x="477" d="M235 319Q184 319 146 332T83 373T45 442T33 542Q33 654 88 706T245 759Q313 759 357 738T422 670T444 544Q444 437 391 378T235 319ZM180 421V660Q180 660 181 662T188 665H214Q220 665 221 663T223 660V429Q223
423 217 422T180 421ZM267 421Q265 469 256 489T238 515T229 521Q229 521 228 524T231 529L255 542Q258 542 260 542T264 538Q264 538 275 531T299 500T314 430Q314 424 311 422T294 419Q290 419 282 419T267 421ZM236 391Q271 391 301 405T349 453T368 545Q368
594 355 627T315 676T243 693Q184 693 146 661T108 544Q108 487 123 454T166 406T236 391ZM233 552Q245 552 252 561T260 597Q260 612 255 620T235 628Q229 628 226 628T222 628V553Q222 553 224 553T229 553T233 552ZM194 512Q187 512 186 514T184 522V659Q184
660 184 662T191 665H227Q266 665 286 647T307 592Q307 552 284 532T229 512H194Z" />
<glyph unicode="&#xaf;" horiz-adv-x="277" d="M7 573Q2 586 1 597T0 619Q0 641 11 655T41 669H267Q273 658 275 647T277 626Q277 603 267 588T239 573H7Z" />
<glyph unicode="&#xb0;" horiz-adv-x="348" d="M172 545Q122 545 97 565T72 646Q72 700 100 724T178 749Q228 749 252 728T276 648Q276 596 250 571T172 545ZM173 607Q190 607 200 615T211 647Q211 668 203 677T178 686Q159 686 149 677T139 646Q139 626 147 617T173
607Z" />
<glyph unicode="&#xb1;" horiz-adv-x="407" d="M30 296Q30 342 32 363T49 384H380Q380 339 378 318T361 296H30ZM161 165V496Q161 510 182 512T249 515V184Q249 170 228 168T161 165ZM28 16Q28 62 30 83T47 104H378Q378 59 376 38T359 16H28Z" />
<glyph unicode="&#xb2;" horiz-adv-x="370" d="M39 289Q35 298 33 306T31 321Q31 335 34 348T45 371Q74 405 101 432T151 483T187 525T201 566Q201 577 197 586T182 600T149 606Q124 606 102 597T57 574Q47 596 44 608T40 635Q40 658 65 674T128 700T200 710Q249
710 276 698T315 662T327 605Q327 571 313 541T276 483T230 431T187 385H333Q338 358 338 341Q338 289 306 289H39Z" />
<glyph unicode="&#xb3;" horiz-adv-x="359" d="M152 279Q111 279 85 286T48 302Q31 313 31 340Q31 374 55 395Q68 387 91 380T145 372Q180 372 201 383T223 419Q223 436 211 447T174 460Q163 463 146 463T112 463Q110 467 106 484T101 509Q101 522 107 530T131
539Q162 539 190 536T239 526Q281 516 304 488T328 426Q328 374 304 342T240 294T152 279ZM253 505L159 527Q182 542 191 555T201 584Q201 594 196 602T180 615T149 620Q123 620 100 612T57 591Q39 611 37 636T48 674Q65 689 102 699T195 710Q237 710 263 699T302
668T315 621Q315 591 300 561T253 505Z" />
<glyph unicode="&#xb4;" horiz-adv-x="279" d="M89 552Q77 552 68 566T55 594T50 608Q64 627 84 647T126 685T162 715T182 726Q199 726 212 701T229 651Q221 641 201 626T158 595T116 567T89 552Z" />
<glyph unicode="&#xb5;" horiz-adv-x="375" d="M79 -196Q68 -196 56 -194T34 -189V461Q34 484 46 495T86 506Q97 506 111 505T136 499V132Q136 109 149 98T186 86Q203 86 215 89T238 97V461Q238 484 247 495T288 506Q298 506 313 505T340 499V24Q312 11 271 1T183
-10Q151 -10 136 6V-154Q136 -179 119 -187T79 -196Z" />
<glyph unicode="&#xb6;" horiz-adv-x="536" d="M298 -3Q280 -3 266 -1T245 4V203Q231 196 213 194T173 191Q144 191 117 202T70 238T38 307T26 418Q26 527 51 590T121 682T223 710Q261 710 294 701T347 681V34Q347 10 331 4T298 -3ZM200 271Q209 271 222 273T244
282V616Q240 618 231 621T208 624Q171 624 151 577T131 429Q131 363 141 329T167 284T200 271ZM448 -4Q440 -4 426 -3T399 2V650Q399 672 410 681T453 691Q464 691 477 689T502 683V33Q502 10 492 3T448 -4Z" />
<glyph unicode="&#xb7;" horiz-adv-x="230" d="M115 202Q77 202 63 219T49 268Q49 295 66 315T115 336Q153 336 167 318T181 268Q181 241 164 222T115 202Z" />
<glyph unicode="&#xb8;" horiz-adv-x="277" d="M125 -217Q101 -217 84 -210T67 -202Q67 -202 69 -192T75 -169T82 -154Q87 -149 99 -157T127 -166Q144 -166 150 -157T156 -134Q156 -117 150 -109T129 -101Q107 -101 96 -104T85 -107L104 2H157L145 -58Q145 -58
145 -58T162 -57Q181 -57 196 -73T212 -126Q212 -151 202 -172T172 -205T125 -217Z" />
<glyph unicode="&#xb9;" horiz-adv-x="361" d="M37 289Q33 303 32 314T31 333Q31 357 38 371T65 385H143V598L47 580Q41 591 38 603T34 629Q34 648 43 659T67 675Q90 684 119 692T176 705T217 710Q222 710 232 709T246 706V385H325Q327 373 328 362T330 340Q330
312 324 301T299 289H37Z" />
<glyph unicode="&#xba;" horiz-adv-x="330" d="M161 289Q119 289 90 307T45 371T30 499Q30 610 67 660T170 710Q215 710 243 693T286 630T300 502Q300 393 264 341T161 289ZM162 372Q187 372 201 398T215 498Q215 548 210 574T195 610T169 620Q144 620 130 594T115
495Q115 445 120 418T136 382T162 372Z" />
<glyph unicode="&#xbb;" horiz-adv-x="414" d="M260 0Q260 0 251 3T230 13T209 31T199 58Q199 70 207 88T227 129T254 172T281 211T301 240T309 251Q309 251 302 262T282 291T255 332T229 376T209 417T201 448Q201 462 210 471T231 487T252 497T261 500Q261 500
271 485T298 445T333 391T367 333T393 283T404 251Q404 241 394 218T367 167T333 110T298 56T271 16T260 0ZM79 23Q79 23 65 29T38 47T24 80Q24 95 34 116T60 160T91 204T117 237T128 250Q130 250 121 264T96 299T64 345T36 392T25 428Q25 446 38 457T66 474T80
480Q80 480 90 467T117 430T151 381T185 328T212 281T223 250Q223 240 212 219T185 172T151 120T116 72T90 37T79 23Z" />
<glyph unicode="&#xbc;" horiz-adv-x="937" d="M36 289Q32 303 31 314T30 333Q30 357 37 371T64 385H142V598L46 580Q40 591 37 603T33 629Q33 648 42 659T65 675Q89 684 118 692T175 705T216 710Q221 710 231 709T245 706V385H324Q326 373 327 362T329 340Q329
312 323 301T298 289H36ZM350 -10Q336 -10 316 -1T278 24L563 686Q566 695 573 702T598 710Q614 710 632 702T668 676L380 9Q379 3 372 -3T350 -10ZM803 -7Q784 -7 761 -1V67H602Q593 77 589 90T584 119Q584 135 590 153Q599 183 613 214T647 277T685 336T722 381Q745
407 768 414T814 421Q824 421 836 419T856 415V163H907Q911 154 913 143T915 117Q915 93 906 80T884 67H856V23Q856 -7 803 -7ZM675 156H765L770 309Q755 299 741 282T713 242T691 198T675 156Z" />
<glyph unicode="&#xbd;" horiz-adv-x="921" d="M36 289Q32 303 31 314T30 333Q30 357 37 371T64 385H142V598L46 580Q40 591 37 603T33 629Q33 648 42 659T65 675Q89 684 118 692T175 705T216 710Q221 710 231 709T245 706V385H324Q326 373 327 362T329 340Q329
312 323 301T298 289H36ZM350 -10Q336 -10 316 -1T278 24L563 686Q566 695 573 702T598 710Q614 710 632 702T668 676L380 9Q379 3 372 -3T350 -10ZM592 0Q588 9 586 17T584 32Q584 46 587 59T598 82Q626 116 653 143T704 194T740 236T754 277Q754 288 750 297T734
311T702 317Q677 317 655 308T610 285Q600 307 597 319T593 346Q593 369 618 385T680 411T752 421Q801 421 829 409T868 373T880 316Q880 282 866 252T829 194T782 142T739 96H886Q891 69 891 52Q891 0 859 0H592Z" />
<glyph unicode="&#xbe;" horiz-adv-x="935" d="M151 279Q110 279 84 286T46 302Q30 313 30 340Q30 374 53 395Q67 387 90 380T144 372Q179 372 200 383T222 419Q222 436 210 447T173 460Q162 463 145 463T111 463Q108 467 104 484T99 509Q99 522 105 530T130 539Q161
539 189 536T238 526Q280 516 303 488T327 426Q327 374 303 342T239 294T151 279ZM252 505L158 527Q181 542 190 555T200 584Q200 594 195 602T179 615T148 620Q122 620 99 612T56 591Q38 611 36 636T47 674Q64 689 101 699T194 710Q236 710 262 699T301 668T314
621Q314 591 299 561T252 505ZM348 -10Q334 -10 314 -1T276 24L561 686Q564 695 571 702T596 710Q612 710 630 702T666 676L378 9Q377 3 370 -3T348 -10ZM801 -7Q782 -7 759 -1V67H600Q591 77 587 90T582 119Q582 135 588 153Q597 183 611 214T645 277T683 336T720
381Q743 407 766 414T812 421Q822 421 834 419T854 415V163H905Q909 154 911 143T913 117Q913 93 904 80T882 67H854V23Q854 -7 801 -7ZM673 156H763L768 309Q753 299 739 282T711 242T689 198T673 156Z" />
<glyph unicode="&#xbf;" horiz-adv-x="310" d="M153 -196Q119 -196 93 -186T49 -158T23 -115T14 -58Q14 -12 25 22T53 82T88 132T120 182Q131 201 128 222T120 261T121 286Q127 293 143 296T179 299T213 297Q213 297 218 285T227 252T231 207T217 158Q200 125
184 100T154 55T133 13T125 -32Q125 -48 129 -59T142 -78T163 -89T194 -93Q228 -93 246 -83T267 -70Q275 -92 279 -111T283 -152Q283 -165 263 -175T212 -190T153 -196ZM167 372Q130 372 116 390T101 440Q101 467 118 486T167 506Q205 506 219 489T233 440Q233
413 216 393T167 372Z" />
<glyph unicode="&#xc0;" horiz-adv-x="437" d="M67 -2Q58 -2 40 -1T3 2L174 684Q177 702 214 702Q227 702 240 701T262 699L433 17Q435 8 427 3T388 -2Q378 -2 363 -2T328 0L249 366Q243 395 237 428T227 494T220 556Q217 528 212 495T202 428T190 366L114 18Q112
8 105 3T67 -2ZM113 165V257H343V165H113ZM277 744Q271 746 252 758T209 786T166 817T138 842Q142 867 154 892T185 917Q189 917 204 906T240 877T281 838T317 799Q317 799 313 786T300 758T277 744Z" />
<glyph unicode="&#xc1;" horiz-adv-x="437" d="M67 -2Q58 -2 40 -1T3 2L174 684Q177 702 214 702Q227 702 240 701T262 699L433 17Q435 8 427 3T388 -2Q378 -2 363 -2T328 0L249 366Q243 395 237 428T227 494T220 556Q217 528 212 495T202 428T190 366L114 18Q112
8 105 3T67 -2ZM113 165V257H343V165H113ZM177 752Q165 752 156 766T143 794T138 808Q152 827 172 847T214 885T250 915T270 926Q287 926 300 901T317 851Q309 841 289 826T246 795T204 767T177 752Z" />
<glyph unicode="&#xc2;" horiz-adv-x="437" d="M67 -2Q58 -2 40 -1T3 2L174 684Q177 702 214 702Q227 702 240 701T262 699L433 17Q435 8 427 3T388 -2Q378 -2 363 -2T328 0L249 366Q243 395 237 428T227 494T220 556Q217 528 212 495T202 428T190 366L114 18Q112
8 105 3T67 -2ZM113 165V257H343V165H113ZM280 753Q280 753 274 759T258 776T240 799T223 824Q223 824 216 814T198 790T176 765T157 754Q133 754 116 760T88 782L204 912Q214 915 224 915Q232 915 239 912T253 902Q253 902 268 887T302 850T336 808T351 779Q351
765 329 759T280 753Z" />
<glyph unicode="&#xc3;" horiz-adv-x="437" d="M67 -2Q58 -2 40 -1T3 2L174 684Q177 702 214 702Q227 702 240 701T262 699L433 17Q435 8 427 3T388 -2Q378 -2 363 -2T328 0L249 366Q243 395 237 428T227 494T220 556Q217 528 212 495T202 428T190 366L114 18Q112
8 105 3T67 -2ZM113 165V257H343V165H113ZM255 751Q235 751 225 757T209 772T195 788T173 795Q158 795 148 787T132 770T118 761Q104 761 93 774T76 799T69 811Q95 855 129 873T191 892Q206 892 216 885T234 870T251 854T274 847Q297 847 306 855T322 872T336 881Q346
881 353 867T365 838T370 824Q369 823 360 812T335 786T299 762T255 751Z" />
<glyph unicode="&#xc4;" horiz-adv-x="437" d="M67 -2Q58 -2 40 -1T3 2L174 684Q177 702 214 702Q227 702 240 701T262 699L433 17Q435 8 427 3T388 -2Q378 -2 363 -2T328 0L249 366Q243 395 237 428T227 494T220 556Q217 528 212 495T202 428T190 366L114 18Q112
8 105 3T67 -2ZM113 165V257H343V165H113ZM153 756Q132 757 119 771T106 828Q106 859 119 878T160 897Q186 897 196 882T207 832Q207 796 194 776T153 756ZM280 756Q257 757 245 771T232 828Q232 859 245 878T286 897Q313 897 323 882T333 832Q332 796 319 776T280
756Z" />
<glyph unicode="&#xc5;" horiz-adv-x="437" d="M67 -2Q58 -2 40 -1T3 2L174 684Q177 702 214 702Q227 702 240 701T262 699L433 17Q435 8 427 3T388 -2Q378 -2 363 -2T328 0L249 366Q243 395 237 428T227 494T220 556Q217 528 212 495T202 428T190 366L114 18Q112
8 105 3T67 -2ZM113 165V257H343V165H113ZM217 733Q168 733 143 754T118 835Q118 889 146 913T223 938Q274 938 298 917T322 837Q322 784 296 759T217 733ZM219 800Q234 800 243 808T252 836Q252 854 245 862T223 870Q207 870 198 862T189 835Q189 817 196 809T219
800Z" />
<glyph unicode="&#xc6;" horiz-adv-x="593" d="M81 -2Q71 -2 53 -1T16 2L282 682Q285 692 294 696T314 700H342Q340 678 332 638T310 549T282 451T254 363L128 18Q124 8 116 3T81 -2ZM120 165L159 257H350V165H120ZM321 0V681Q321 681 323 690T340 700H580Q580
659 579 640T574 615T561 609H423V91H574Q574 49 573 30T568 5T555 0H321ZM330 333V426H553Q553 369 551 351T536 333H330Z" />
<glyph unicode="&#xc7;" horiz-adv-x="330" d="M190 -10Q158 -10 132 -2T85 26T51 84T30 181T23 325Q23 425 35 493T67 604T113 670T167 701T222 710Q263 710 283 702T310 680T317 652Q317 634 313 618T302 590Q296 595 288 599T269 606T246 610Q228 610 211 604T180
580T154 531T137 451T131 333Q131 264 136 220T152 150T178 115T216 104Q241 104 263 109T298 124Q304 112 308 96T312 63Q312 42 298 25T256 -1T190 -10ZM185 -217Q161 -217 144 -210T127 -202Q127 -202 129 -192T135 -169T142 -154Q147 -149 159 -157T187 -166Q204
-166 210 -157T216 -134Q216 -117 210 -109T189 -101Q167 -101 156 -104T145 -107L164 2H217L205 -58Q205 -58 205 -58T222 -57Q241 -57 256 -73T272 -126Q272 -151 262 -172T232 -205T185 -217Z" />
<glyph unicode="&#xc8;" horiz-adv-x="306" d="M35 0V681Q35 681 37 690T54 700H293Q293 659 293 640T288 615T275 609H137V91H287Q287 49 287 30T282 5T269 0H35ZM44 333V426H267Q267 369 265 351T249 333H44ZM218 744Q212 746 193 758T150 786T107 817T79 842Q83
867 95 892T126 917Q130 917 145 906T181 877T222 838T258 799Q258 799 254 786T241 758T218 744Z" />
<glyph unicode="&#xc9;" horiz-adv-x="306" d="M35 0V681Q35 681 37 690T54 700H293Q293 659 293 640T288 615T275 609H137V91H287Q287 49 287 30T282 5T269 0H35ZM44 333V426H267Q267 369 265 351T249 333H44ZM118 752Q106 752 97 766T84 794T79 808Q93 827 113
847T155 885T191 915T211 926Q228 926 241 901T258 851Q250 841 230 826T187 795T145 767T118 752Z" />
<glyph unicode="&#xca;" horiz-adv-x="306" d="M35 0V681Q35 681 37 690T54 700H293Q293 659 293 640T288 615T275 609H137V91H287Q287 49 287 30T282 5T269 0H35ZM44 333V426H267Q267 369 265 351T249 333H44ZM220 753Q220 753 214 759T198 776T180 799T163 824Q163
824 156 814T138 790T116 765T97 754Q73 754 56 760T28 782L144 912Q154 915 164 915Q172 915 179 912T193 902Q193 902 208 887T242 850T276 808T291 779Q291 765 269 759T220 753Z" />
<glyph unicode="&#xcb;" horiz-adv-x="306" d="M35 0V681Q35 681 37 690T54 700H293Q293 659 293 640T288 615T275 609H137V91H287Q287 49 287 30T282 5T269 0H35ZM44 333V426H267Q267 369 265 351T249 333H44ZM93 756Q72 757 59 771T46 828Q46 859 59 878T100
897Q126 897 136 882T147 832Q147 796 134 776T93 756ZM220 756Q197 757 185 771T172 828Q172 859 185 878T226 897Q253 897 263 882T273 832Q272 796 259 776T220 756Z" />
<glyph unicode="&#xcc;" horiz-adv-x="173" d="M34 0V655Q34 678 38 687T65 698T138 700V19Q138 9 134 6T108 1T34 0ZM145 744Q139 746 120 758T77 786T34 817T6 842Q10 867 22 892T53 917Q57 917 72 906T108 877T149 838T185 799Q185 799 181 786T168 758T145 744Z" />
<glyph unicode="&#xcd;" horiz-adv-x="173" d="M34 0V655Q34 678 38 687T65 698T138 700V19Q138 9 134 6T108 1T34 0ZM45 752Q33 752 24 766T11 794T6 808Q20 827 40 847T82 885T118 915T138 926Q155 926 168 901T185 851Q177 841 157 826T114 795T72 767T45 752Z" />
<glyph unicode="&#xce;" horiz-adv-x="173" d="M34 0V655Q34 678 38 687T65 698T138 700V19Q138 9 134 6T108 1T34 0ZM147 753Q147 753 141 759T125 776T107 799T90 824Q90 824 83 814T65 790T43 765T24 754Q0 754 -17 760T-45 782L71 912Q81 915 91 915Q99 915
106 912T120 902Q120 902 135 887T169 850T203 808T218 779Q218 765 196 759T147 753Z" />
<glyph unicode="&#xcf;" horiz-adv-x="173" d="M34 0V655Q34 678 38 687T65 698T138 700V19Q138 9 134 6T108 1T34 0ZM20 756Q-1 757 -14 771T-27 828Q-27 859 -14 878T27 897Q53 897 63 882T74 832Q74 796 61 776T20 756ZM147 756Q124 757 112 771T99 828Q99
859 112 878T153 897Q180 897 190 882T200 832Q199 796 186 776T147 756Z" />
<glyph unicode="&#xd0;" horiz-adv-x="369" d="M35 0V680Q35 690 40 695T62 700H159Q208 700 245 687T306 639T342 546T354 396Q354 288 343 213T308 91T248 22T162 0H35ZM-1 320Q-1 366 1 387T18 408H196Q196 363 194 342T177 320H-1ZM137 98L165 97Q179 97 192
107T215 148T231 238T237 396Q237 464 232 505T218 569T196 599T164 607H137V98Z" />
<glyph unicode="&#xd1;" horiz-adv-x="435" d="M303 0L194 270Q186 292 177 322T157 388T139 456T123 518T112 563T107 580L48 640L53 700H133L240 435Q249 412 259 380T279 314T297 247T312 187T323 144T327 128L389 60L381 0H303ZM34 0V681Q34 700 53 700L136
681L121 529Q124 510 125 488T129 440T132 389T134 340T135 296T136 260V19Q136 9 132 6T106 1T34 0ZM381 0L298 19L312 192Q309 212 307 234T304 280T302 326T300 371T299 412T298 447V681Q298 691 302 694T328 699T400 700V19Q400 0 381 0ZM253 751Q233 751 223
757T207 772T193 788T171 795Q156 795 146 787T130 770T116 761Q102 761 91 774T74 799T67 811Q93 855 127 873T189 892Q204 892 214 885T232 870T249 854T272 847Q295 847 304 855T320 872T334 881Q344 881 351 867T363 838T368 824Q367 823 358 812T333 786T297
762T253 751Z" />
<glyph unicode="&#xd2;" horiz-adv-x="415" d="M203 -10Q155 -10 121 6T65 62T33 173T23 354Q23 489 44 566T107 677T214 710Q263 710 297 693T352 637T382 529T392 358Q392 218 372 138T311 24T203 -10ZM209 96Q237 96 252 121T274 204T281 354Q281 446 276 501T257
580T213 604Q185 604 169 578T146 492T139 331Q139 248 144 196T165 120T209 96ZM267 744Q261 746 242 758T199 786T156 817T128 842Q132 867 144 892T175 917Q179 917 194 906T230 877T271 838T307 799Q307 799 303 786T290 758T267 744Z" />
<glyph unicode="&#xd3;" horiz-adv-x="415" d="M203 -10Q155 -10 121 6T65 62T33 173T23 354Q23 489 44 566T107 677T214 710Q263 710 297 693T352 637T382 529T392 358Q392 218 372 138T311 24T203 -10ZM209 96Q237 96 252 121T274 204T281 354Q281 446 276 501T257
580T213 604Q185 604 169 578T146 492T139 331Q139 248 144 196T165 120T209 96ZM167 752Q155 752 146 766T133 794T128 808Q142 827 162 847T204 885T240 915T260 926Q277 926 290 901T307 851Q299 841 279 826T236 795T194 767T167 752Z" />
<glyph unicode="&#xd4;" horiz-adv-x="415" d="M203 -10Q155 -10 121 6T65 62T33 173T23 354Q23 489 44 566T107 677T214 710Q263 710 297 693T352 637T382 529T392 358Q392 218 372 138T311 24T203 -10ZM209 96Q237 96 252 121T274 204T281 354Q281 446 276 501T257
580T213 604Q185 604 169 578T146 492T139 331Q139 248 144 196T165 120T209 96ZM269 753Q269 753 263 759T247 776T229 799T212 824Q212 824 205 814T187 790T165 765T146 754Q122 754 105 760T77 782L193 912Q203 915 213 915Q221 915 228 912T242 902Q242 902
257 887T291 850T325 808T340 779Q340 765 318 759T269 753Z" />
<glyph unicode="&#xd5;" horiz-adv-x="415" d="M203 -10Q155 -10 121 6T65 62T33 173T23 354Q23 489 44 566T107 677T214 710Q263 710 297 693T352 637T382 529T392 358Q392 218 372 138T311 24T203 -10ZM209 96Q237 96 252 121T274 204T281 354Q281 446 276 501T257
580T213 604Q185 604 169 578T146 492T139 331Q139 248 144 196T165 120T209 96ZM244 751Q224 751 214 757T198 772T184 788T162 795Q147 795 137 787T121 770T107 761Q93 761 82 774T65 799T58 811Q84 855 118 873T180 892Q195 892 205 885T223 870T240 854T263
847Q286 847 295 855T311 872T325 881Q335 881 342 867T354 838T359 824Q358 823 349 812T324 786T288 762T244 751Z" />
<glyph unicode="&#xd6;" horiz-adv-x="415" d="M203 -10Q155 -10 121 6T65 62T33 173T23 354Q23 489 44 566T107 677T214 710Q263 710 297 693T352 637T382 529T392 358Q392 218 372 138T311 24T203 -10ZM209 96Q237 96 252 121T274 204T281 354Q281 446 276 501T257
580T213 604Q185 604 169 578T146 492T139 331Q139 248 144 196T165 120T209 96ZM142 756Q121 757 108 771T95 828Q95 859 108 878T149 897Q175 897 185 882T196 832Q196 796 183 776T142 756ZM269 756Q246 757 234 771T221 828Q221 859 234 878T275 897Q302 897
312 882T322 832Q321 796 308 776T269 756Z" />
<glyph unicode="&#xd7;" horiz-adv-x="406" d="M272 140L58 375Q91 407 107 420T134 424L347 189Q315 158 299 145T272 140ZM134 140Q124 131 108 144T58 189L272 424Q282 434 298 421T347 375L134 140Z" />
<glyph unicode="&#xd8;" horiz-adv-x="424" d="M216 710Q281 710 321 679T379 572T397 358Q397 218 377 138T316 24T208 -10Q159 -10 125 6T69 62T38 173T28 354Q28 489 48 566T110 677T216 710ZM215 605Q188 605 173 579T151 493T144 331Q144 248 147 196T163
120T204 96Q221 96 236 104T262 137T279 215T285 354Q285 446 280 501T260 580T215 605ZM54 145Q54 145 67 142T94 130T110 110Q111 104 106 86T92 46T76 7T66 -15Q50 -16 29 -8T5 15Q4 19 11 39T29 83T46 126T54 145ZM100 101L278 637Q278 637 290 635T315 625T331
606Q332 603 323 573T297 494T263 390T225 278T191 176T165 101T155 73Q155 73 142 75T115 84T100 101ZM374 523Q374 523 364 526T339 535T314 548T301 562Q301 562 306 576T318 611T334 655T350 695T360 719Q360 719 375 717T406 708T424 689Q425 684 420 666T408
624T392 577T379 539T374 523Z" />
<glyph unicode="&#xd9;" horiz-adv-x="419" d="M214 -10Q154 -10 119 6T65 51T40 116T34 196V680Q34 691 38 694T65 699T140 700V192Q140 167 142 147T153 112T176 91T214 84Q234 84 252 88T281 98V680Q281 691 285 694T311 699T385 700V27Q367 15 322 3T214 -10ZM269
744Q263 746 244 758T201 786T158 817T130 842Q134 867 146 892T177 917Q181 917 196 906T232 877T273 838T309 799Q309 799 305 786T292 758T269 744Z" />
<glyph unicode="&#xda;" horiz-adv-x="419" d="M214 -10Q154 -10 119 6T65 51T40 116T34 196V680Q34 691 38 694T65 699T140 700V192Q140 167 142 147T153 112T176 91T214 84Q234 84 252 88T281 98V680Q281 691 285 694T311 699T385 700V27Q367 15 322 3T214 -10ZM169
752Q157 752 148 766T135 794T130 808Q144 827 164 847T206 885T242 915T262 926Q279 926 292 901T309 851Q301 841 281 826T238 795T196 767T169 752Z" />
<glyph unicode="&#xdb;" horiz-adv-x="419" d="M214 -10Q154 -10 119 6T65 51T40 116T34 196V680Q34 691 38 694T65 699T140 700V192Q140 167 142 147T153 112T176 91T214 84Q234 84 252 88T281 98V680Q281 691 285 694T311 699T385 700V27Q367 15 322 3T214 -10ZM271
753Q271 753 265 759T249 776T231 799T214 824Q214 824 207 814T189 790T167 765T148 754Q124 754 107 760T79 782L195 912Q205 915 215 915Q223 915 230 912T244 902Q244 902 259 887T293 850T327 808T342 779Q342 765 320 759T271 753Z" />
<glyph unicode="&#xdc;" horiz-adv-x="419" d="M214 -10Q154 -10 119 6T65 51T40 116T34 196V680Q34 691 38 694T65 699T140 700V192Q140 167 142 147T153 112T176 91T214 84Q234 84 252 88T281 98V680Q281 691 285 694T311 699T385 700V27Q367 15 322 3T214 -10ZM144
756Q123 757 110 771T97 828Q97 859 110 878T151 897Q177 897 187 882T198 832Q198 796 185 776T144 756ZM271 756Q248 757 236 771T223 828Q223 859 236 878T277 897Q304 897 314 882T324 832Q323 796 310 776T271 756Z" />
<glyph unicode="&#xdd;" horiz-adv-x="367" d="M216 223H156L6 684Q3 693 7 696T37 699T122 700L155 567Q160 547 165 520T176 463T185 410T190 369Q192 385 195 409T204 463T215 520T226 568L253 682Q256 691 261 694T289 699T363 700L216 223ZM135 0V358H237V19Q237
9 233 6T208 1T135 0ZM142 752Q130 752 121 766T108 794T103 808Q117 827 137 847T179 885T215 915T235 926Q252 926 265 901T282 851Q274 841 254 826T211 795T169 767T142 752Z" />
<glyph unicode="&#xde;" horiz-adv-x="353" d="M34 0V675Q34 692 47 696T104 700H136V569H149Q212 569 254 551T318 488T340 365Q340 299 325 257T282 189T222 154T152 143H136V19Q136 9 131 6T104 1T34 0ZM164 237Q184 237 197 249T218 291T226 378Q226 411 221
433T203 468T170 480Q157 480 150 480T136 477V241Q139 241 145 239T164 237Z" />
<glyph unicode="&#xdf;" horiz-adv-x="460" d="M86 -10Q57 -10 44 -4T30 3Q30 3 36 26T43 90L40 550Q40 630 84 667T204 705Q259 705 298 693T361 661T397 615T409 560Q409 532 400 515T377 486T349 463T326 441T316 408Q316 391 330 372T364 331T406 281T441
219T455 140Q455 73 416 32T307 -9Q245 -9 216 6T186 38Q186 65 194 80T211 106Q214 104 232 93T281 82Q310 82 325 97T340 140Q340 168 326 193T292 242T252 292T218 345T204 403Q204 430 213 449T237 481T265 507T289 531T299 559Q299 575 289 586T259 603T210
610Q168 610 156 583T143 493L146 58Q146 21 135 6T86 -10Z" />
<glyph unicode="&#xe0;" horiz-adv-x="343" d="M165 -10Q137 -10 112 -5T66 15T35 62T23 145Q23 196 33 228T60 279T99 303T144 309Q156 309 176 307T211 295Q211 295 211 307T211 336T211 367Q211 384 206 393T191 407T162 412Q131 412 97 406T38 390Q30 406
28 422T25 449Q25 458 28 467T37 482Q49 490 89 500T188 510Q255 510 284 483T313 388V339Q313 282 313 223T312 112T308 23Q284 9 248 0T165 -10ZM173 74Q183 74 193 77T208 86Q209 99 210 123T211 175T211 226Q204 231 195 232T178 234Q168 234 159 231T144 218T134
191T130 148Q130 126 132 113T140 90T154 78T173 74ZM229 544Q223 546 204 558T161 586T118 617T90 642Q94 667 106 692T137 717Q141 717 156 706T192 677T233 638T269 599Q269 599 265 586T252 558T229 544Z" />
<glyph unicode="&#xe1;" horiz-adv-x="343" d="M165 -10Q137 -10 112 -5T66 15T35 62T23 145Q23 196 33 228T60 279T99 303T144 309Q156 309 176 307T211 295Q211 295 211 307T211 336T211 367Q211 384 206 393T191 407T162 412Q131 412 97 406T38 390Q30 406
28 422T25 449Q25 458 28 467T37 482Q49 490 89 500T188 510Q255 510 284 483T313 388V339Q313 282 313 223T312 112T308 23Q284 9 248 0T165 -10ZM173 74Q183 74 193 77T208 86Q209 99 210 123T211 175T211 226Q204 231 195 232T178 234Q168 234 159 231T144 218T134
191T130 148Q130 126 132 113T140 90T154 78T173 74ZM129 552Q117 552 108 566T95 594T90 608Q104 627 124 647T166 685T202 715T222 726Q239 726 252 701T269 651Q261 641 241 626T198 595T156 567T129 552Z" />
<glyph unicode="&#xe2;" horiz-adv-x="343" d="M165 -10Q137 -10 112 -5T66 15T35 62T23 145Q23 196 33 228T60 279T99 303T144 309Q156 309 176 307T211 295Q211 295 211 307T211 336T211 367Q211 384 206 393T191 407T162 412Q131 412 97 406T38 390Q30 406
28 422T25 449Q25 458 28 467T37 482Q49 490 89 500T188 510Q255 510 284 483T313 388V339Q313 282 313 223T312 112T308 23Q284 9 248 0T165 -10ZM173 74Q183 74 193 77T208 86Q209 99 210 123T211 175T211 226Q204 231 195 232T178 234Q168 234 159 231T144 218T134
191T130 148Q130 126 132 113T140 90T154 78T173 74ZM232 553Q232 553 226 559T210 576T192 599T175 624Q175 624 168 614T150 590T128 565T109 554Q85 554 68 560T40 582L156 712Q166 715 176 715Q184 715 191 712T205 702Q205 702 220 687T254 650T288 608T303
579Q303 565 281 559T232 553Z" />
<glyph unicode="&#xe3;" horiz-adv-x="343" d="M165 -10Q137 -10 112 -5T66 15T35 62T23 145Q23 196 33 228T60 279T99 303T144 309Q156 309 176 307T211 295Q211 295 211 307T211 336T211 367Q211 384 206 393T191 407T162 412Q131 412 97 406T38 390Q30 406
28 422T25 449Q25 458 28 467T37 482Q49 490 89 500T188 510Q255 510 284 483T313 388V339Q313 282 313 223T312 112T308 23Q284 9 248 0T165 -10ZM173 74Q183 74 193 77T208 86Q209 99 210 123T211 175T211 226Q204 231 195 232T178 234Q168 234 159 231T144 218T134
191T130 148Q130 126 132 113T140 90T154 78T173 74ZM207 551Q187 551 177 557T161 572T147 588T125 595Q110 595 100 587T84 570T70 561Q56 561 45 574T28 599T21 611Q47 655 81 673T143 692Q158 692 168 685T186 670T203 654T226 647Q249 647 258 655T274 672T288
681Q298 681 305 667T317 638T322 624Q321 623 312 612T287 586T251 562T207 551Z" />
<glyph unicode="&#xe4;" horiz-adv-x="343" d="M165 -10Q137 -10 112 -5T66 15T35 62T23 145Q23 196 33 228T60 279T99 303T144 309Q156 309 176 307T211 295Q211 295 211 307T211 336T211 367Q211 384 206 393T191 407T162 412Q131 412 97 406T38 390Q30 406
28 422T25 449Q25 458 28 467T37 482Q49 490 89 500T188 510Q255 510 284 483T313 388V339Q313 282 313 223T312 112T308 23Q284 9 248 0T165 -10ZM173 74Q183 74 193 77T208 86Q209 99 210 123T211 175T211 226Q204 231 195 232T178 234Q168 234 159 231T144 218T134
191T130 148Q130 126 132 113T140 90T154 78T173 74ZM105 556Q84 557 71 571T58 628Q58 659 71 678T112 697Q138 697 148 682T159 632Q159 596 146 576T105 556ZM232 556Q209 557 197 571T184 628Q184 659 197 678T238 697Q265 697 275 682T285 632Q284 596 271
576T232 556Z" />
<glyph unicode="&#xe5;" horiz-adv-x="343" d="M165 -10Q137 -10 112 -5T66 15T35 62T23 145Q23 196 33 228T60 279T99 303T144 309Q156 309 176 307T211 295Q211 295 211 307T211 336T211 367Q211 384 206 393T191 407T162 412Q131 412 97 406T38 390Q30 406
28 422T25 449Q25 458 28 467T37 482Q49 490 89 500T188 510Q255 510 284 483T313 388V339Q313 282 313 223T312 112T308 23Q284 9 248 0T165 -10ZM173 74Q183 74 193 77T208 86Q209 99 210 123T211 175T211 226Q204 231 195 232T178 234Q168 234 159 231T144 218T134
191T130 148Q130 126 132 113T140 90T154 78T173 74ZM169 533Q120 533 95 554T70 635Q70 689 98 713T175 738Q226 738 250 717T274 637Q274 584 248 559T169 533ZM171 600Q186 600 195 608T204 636Q204 654 197 662T175 670Q159 670 150 662T141 635Q141 617 148
609T171 600Z" />
<glyph unicode="&#xe6;" horiz-adv-x="551" d="M373 -9Q339 -9 313 -1T269 32T243 102T234 225Q234 320 245 377T278 462T329 500T393 510Q454 510 487 472T520 348Q520 313 518 276T507 210Q454 203 412 204T340 209T293 218T277 223L279 304Q279 304 291 300T323
292T368 285T416 285Q419 295 420 311T421 340Q421 390 412 405T380 421Q365 421 354 411T336 378T326 319T322 231Q322 183 325 155T335 113T355 95T386 90Q422 90 451 97T505 119Q510 105 512 78T514 28Q514 20 495 12T444 -3T373 -9ZM171 74Q180 74 193 77T211
86V245Q203 249 194 250T178 252Q168 252 159 247T144 231T134 202T130 156Q130 120 134 103T148 80T171 74ZM165 -10Q137 -10 112 -6T66 14T35 63T23 154Q23 205 33 238T60 292T97 319T140 327Q156 327 176 324T211 313Q211 313 211 322T211 346T211 375Q211 392
204 401T184 415T156 420Q123 420 93 414T39 393Q30 409 28 429T25 455Q25 463 29 471T37 482Q49 492 88 501T194 510Q252 510 273 483T295 388V20Q272 6 242 -2T165 -10Z" />
<glyph unicode="&#xe7;" horiz-adv-x="298" d="M172 -10Q134 -10 106 0T60 36T32 112T23 239Q23 329 39 383T82 464T139 501T202 510Q238 510 261 497T285 461Q285 451 283 437T275 406Q263 411 246 415T210 420Q196 420 182 415T156 391T137 336T130 240Q130
194 133 163T146 114T169 88T204 80Q223 80 242 85T273 97Q278 80 280 68T282 43Q282 19 251 5T172 -10ZM140 -217Q116 -217 99 -210T82 -202Q82 -202 84 -192T90 -169T97 -154Q102 -149 114 -157T142 -166Q159 -166 165 -157T171 -134Q171 -117 165 -109T144 -101Q122
-101 111 -104T100 -107L119 2H172L160 -58Q160 -58 160 -58T177 -57Q196 -57 211 -73T227 -126Q227 -151 217 -172T187 -205T140 -217Z" />
<glyph unicode="&#xe8;" horiz-adv-x="349" d="M180 -10Q145 -10 117 0T67 36T35 108T23 225Q23 317 37 373T76 459T133 499T200 510Q260 510 293 472T327 348Q327 313 325 276T314 210Q283 203 244 200T168 196T108 194T84 194L85 276Q85 276 101 276T140 275T186
277T223 285Q226 295 227 311T228 339Q228 389 219 405T186 421Q172 421 161 411T143 378T133 319T129 231Q129 192 132 165T144 122T166 97T203 89Q232 89 259 97T312 118Q317 104 319 85T321 50Q321 31 302 18T250 -3T180 -10ZM236 544Q230 546 211 558T168 586T125
617T97 642Q101 667 113 692T144 717Q148 717 163 706T199 677T240 638T276 599Q276 599 272 586T259 558T236 544Z" />
<glyph unicode="&#xe9;" horiz-adv-x="349" d="M180 -10Q145 -10 117 0T67 36T35 108T23 225Q23 317 37 373T76 459T133 499T200 510Q260 510 293 472T327 348Q327 313 325 276T314 210Q283 203 244 200T168 196T108 194T84 194L85 276Q85 276 101 276T140 275T186
277T223 285Q226 295 227 311T228 339Q228 389 219 405T186 421Q172 421 161 411T143 378T133 319T129 231Q129 192 132 165T144 122T166 97T203 89Q232 89 259 97T312 118Q317 104 319 85T321 50Q321 31 302 18T250 -3T180 -10ZM136 552Q124 552 115 566T102 594T97
608Q111 627 131 647T173 685T209 715T229 726Q246 726 259 701T276 651Q268 641 248 626T205 595T163 567T136 552Z" />
<glyph unicode="&#xea;" horiz-adv-x="349" d="M180 -10Q145 -10 117 0T67 36T35 108T23 225Q23 317 37 373T76 459T133 499T200 510Q260 510 293 472T327 348Q327 313 325 276T314 210Q283 203 244 200T168 196T108 194T84 194L85 276Q85 276 101 276T140 275T186
277T223 285Q226 295 227 311T228 339Q228 389 219 405T186 421Q172 421 161 411T143 378T133 319T129 231Q129 192 132 165T144 122T166 97T203 89Q232 89 259 97T312 118Q317 104 319 85T321 50Q321 31 302 18T250 -3T180 -10ZM238 553Q238 553 232 559T216 576T198
599T181 624Q181 624 174 614T156 590T134 565T115 554Q91 554 74 560T46 582L162 712Q172 715 182 715Q190 715 197 712T211 702Q211 702 226 687T260 650T294 608T309 579Q309 565 287 559T238 553Z" />
<glyph unicode="&#xeb;" horiz-adv-x="349" d="M180 -10Q145 -10 117 0T67 36T35 108T23 225Q23 317 37 373T76 459T133 499T200 510Q260 510 293 472T327 348Q327 313 325 276T314 210Q283 203 244 200T168 196T108 194T84 194L85 276Q85 276 101 276T140 275T186
277T223 285Q226 295 227 311T228 339Q228 389 219 405T186 421Q172 421 161 411T143 378T133 319T129 231Q129 192 132 165T144 122T166 97T203 89Q232 89 259 97T312 118Q317 104 319 85T321 50Q321 31 302 18T250 -3T180 -10ZM111 556Q90 557 77 571T64 628Q64
659 77 678T118 697Q144 697 154 682T165 632Q165 596 152 576T111 556ZM238 556Q215 557 203 571T190 628Q190 659 203 678T244 697Q271 697 281 682T291 632Q290 596 277 576T238 556Z" />
<glyph unicode="&#xec;" horiz-adv-x="178" d="M37 0V455Q37 478 46 487T77 498T141 500V19Q141 9 137 6T111 1T37 0ZM404 544Q398 546 379 558T336 586T293 617T265 642Q269 667 281 692T312 717Q316 717 331 706T367 677T408 638T444 599Q444 599 440 586T427
558T404 544Z" />
<glyph unicode="&#xed;" horiz-adv-x="178" d="M37 0V455Q37 478 46 487T77 498T141 500V19Q141 9 137 6T111 1T37 0ZM304 552Q292 552 283 566T270 594T265 608Q279 627 299 647T341 685T377 715T397 726Q414 726 427 701T444 651Q436 641 416 626T373 595T331
567T304 552Z" />
<glyph unicode="&#xee;" horiz-adv-x="178" d="M37 0V455Q37 478 46 487T77 498T141 500V19Q141 9 137 6T111 1T37 0ZM406 553Q406 553 400 559T384 576T366 599T349 624Q349 624 342 614T324 590T302 565T283 554Q259 554 242 560T214 582L330 712Q340 715 350
715Q358 715 365 712T379 702Q379 702 394 687T428 650T462 608T477 579Q477 565 455 559T406 553Z" />
<glyph unicode="&#xef;" horiz-adv-x="178" d="M37 0V455Q37 478 46 487T77 498T141 500V19Q141 9 137 6T111 1T37 0ZM279 556Q258 557 245 571T232 628Q232 659 245 678T286 697Q312 697 322 682T333 632Q333 596 320 576T279 556ZM406 556Q383 557 371 571T358
628Q358 659 371 678T412 697Q439 697 449 682T459 632Q458 596 445 576T406 556Z" />
<glyph unicode="&#xf0;" horiz-adv-x="392" d="M202 -10Q141 -10 102 15T43 99T23 258Q23 380 65 445T174 510Q215 510 239 494T280 447L284 340Q267 384 248 401T204 419Q176 419 160 393T136 326T128 239Q128 154 146 114T199 74Q223 74 236 89T255 133T264
198T266 281Q266 366 257 429T229 538T180 623T109 699Q121 720 142 732T184 745Q194 745 204 741T221 729Q292 665 331 559T370 289Q370 227 363 174T339 78T288 13T202 -10ZM115 547Q98 590 93 610T101 636L316 719Q333 677 338 657T331 631L115 547Z" />
<glyph unicode="&#xf1;" horiz-adv-x="368" d="M37 0V477Q54 485 81 492T138 505T193 510Q245 510 276 498T321 458T336 380V19Q336 9 331 6T304 1T230 0V348Q230 390 223 406T189 422Q177 422 163 419T139 408V19Q139 9 135 6T109 1T37 0ZM220 551Q200 551 190
557T174 572T160 588T138 595Q123 595 113 587T97 570T83 561Q69 561 58 574T41 599T34 611Q60 655 94 673T156 692Q171 692 181 685T199 670T216 654T239 647Q262 647 271 655T287 672T301 681Q311 681 318 667T330 638T335 624Q334 623 325 612T300 586T264 562T220
551Z" />
<glyph unicode="&#xf2;" horiz-adv-x="366" d="M180 -10Q141 -10 111 -1T62 36T32 115T22 251Q22 387 66 448T188 510Q242 510 276 489T327 411T344 254Q344 111 303 51T180 -10ZM183 75Q197 75 208 87T225 137T232 252Q232 327 228 364T213 413T185 425Q170 425
159 412T141 362T134 251Q134 192 137 156T146 103T161 81T183 75ZM242 544Q236 546 217 558T174 586T131 617T103 642Q107 667 119 692T150 717Q154 717 169 706T205 677T246 638T282 599Q282 599 278 586T265 558T242 544Z" />
<glyph unicode="&#xf3;" horiz-adv-x="366" d="M180 -10Q141 -10 111 -1T62 36T32 115T22 251Q22 387 66 448T188 510Q242 510 276 489T327 411T344 254Q344 111 303 51T180 -10ZM183 75Q197 75 208 87T225 137T232 252Q232 327 228 364T213 413T185 425Q170 425
159 412T141 362T134 251Q134 192 137 156T146 103T161 81T183 75ZM142 552Q130 552 121 566T108 594T103 608Q117 627 137 647T179 685T215 715T235 726Q252 726 265 701T282 651Q274 641 254 626T211 595T169 567T142 552Z" />
<glyph unicode="&#xf4;" horiz-adv-x="366" d="M180 -10Q141 -10 111 -1T62 36T32 115T22 251Q22 387 66 448T188 510Q242 510 276 489T327 411T344 254Q344 111 303 51T180 -10ZM183 75Q197 75 208 87T225 137T232 252Q232 327 228 364T213 413T185 425Q170 425
159 412T141 362T134 251Q134 192 137 156T146 103T161 81T183 75ZM245 553Q245 553 239 559T223 576T205 599T188 624Q188 624 181 614T163 590T141 565T122 554Q98 554 81 560T53 582L169 712Q179 715 189 715Q197 715 204 712T218 702Q218 702 233 687T267 650T301
608T316 579Q316 565 294 559T245 553Z" />
<glyph unicode="&#xf5;" horiz-adv-x="366" d="M180 -10Q141 -10 111 -1T62 36T32 115T22 251Q22 387 66 448T188 510Q242 510 276 489T327 411T344 254Q344 111 303 51T180 -10ZM183 75Q197 75 208 87T225 137T232 252Q232 327 228 364T213 413T185 425Q170 425
159 412T141 362T134 251Q134 192 137 156T146 103T161 81T183 75ZM220 551Q200 551 190 557T174 572T160 588T138 595Q123 595 113 587T97 570T83 561Q69 561 58 574T41 599T34 611Q60 655 94 673T156 692Q171 692 181 685T199 670T216 654T239 647Q262 647 271
655T287 672T301 681Q311 681 318 667T330 638T335 624Q334 623 325 612T300 586T264 562T220 551Z" />
<glyph unicode="&#xf6;" horiz-adv-x="366" d="M180 -10Q141 -10 111 -1T62 36T32 115T22 251Q22 387 66 448T188 510Q242 510 276 489T327 411T344 254Q344 111 303 51T180 -10ZM183 75Q197 75 208 87T225 137T232 252Q232 327 228 364T213 413T185 425Q170 425
159 412T141 362T134 251Q134 192 137 156T146 103T161 81T183 75ZM118 556Q97 557 84 571T71 628Q71 659 84 678T125 697Q151 697 161 682T172 632Q172 596 159 576T118 556ZM245 556Q222 557 210 571T197 628Q197 659 210 678T251 697Q278 697 288 682T298 632Q297
596 284 576T245 556Z" />
<glyph unicode="&#xf7;" horiz-adv-x="406" d="M28 238Q28 284 30 305T47 326H378Q378 281 376 260T359 238H28ZM202 66Q170 66 158 81T145 124Q145 149 160 166T202 184Q235 184 248 168T261 124Q261 101 246 84T202 66ZM202 376Q170 376 158 391T145 434Q145
459 160 476T202 494Q235 494 248 478T261 434Q261 411 246 394T202 376Z" />
<glyph unicode="&#xf8;" horiz-adv-x="403" d="M200 -10Q160 -10 130 -1T81 36T51 115T41 251Q41 387 84 448T207 510Q261 510 295 489T346 411T363 254Q363 111 322 51T200 -10ZM63 -29Q46 -26 27 -14T7 13Q7 16 16 33T37 71T57 107T66 122Q66 122 78 116T103
100T116 78Q116 72 109 57T92 23T74 -10T63 -29ZM202 75Q215 75 226 87T244 137T251 252Q251 327 247 363T232 410T204 422Q189 422 178 410T160 361T153 251Q153 192 156 156T165 103T180 81T202 75ZM136 68Q129 71 118 75T97 86T88 103L256 414Q256 414 268 412T291
403T303 384Q303 381 294 363T270 317T238 257T203 192T171 132T146 88T136 68ZM326 326Q326 326 317 331T294 343T272 360T262 377Q262 377 269 390T287 423T311 463T333 500T348 522Q348 522 362 517T391 503T405 482Q405 476 397 459T378 420T355 377T335 341T326
326Z" />
<glyph unicode="&#xf9;" horiz-adv-x="368" d="M184 -10Q125 -10 93 8T47 60T34 145V481Q34 491 38 494T64 499T140 500V138Q140 118 143 105T155 85T184 78Q195 78 208 81T231 93V481Q231 491 235 494T260 499T333 500V27Q308 13 268 2T184 -10ZM243 544Q237
546 218 558T175 586T132 617T104 642Q108 667 120 692T151 717Q155 717 170 706T206 677T247 638T283 599Q283 599 279 586T266 558T243 544Z" />
<glyph unicode="&#xfa;" horiz-adv-x="368" d="M184 -10Q125 -10 93 8T47 60T34 145V481Q34 491 38 494T64 499T140 500V138Q140 118 143 105T155 85T184 78Q195 78 208 81T231 93V481Q231 491 235 494T260 499T333 500V27Q308 13 268 2T184 -10ZM143 552Q131
552 122 566T109 594T104 608Q118 627 138 647T180 685T216 715T236 726Q253 726 266 701T283 651Q275 641 255 626T212 595T170 567T143 552Z" />
<glyph unicode="&#xfb;" horiz-adv-x="368" d="M184 -10Q125 -10 93 8T47 60T34 145V481Q34 491 38 494T64 499T140 500V138Q140 118 143 105T155 85T184 78Q195 78 208 81T231 93V481Q231 491 235 494T260 499T333 500V27Q308 13 268 2T184 -10ZM245 553Q245
553 239 559T223 576T205 599T188 624Q188 624 181 614T163 590T141 565T122 554Q98 554 81 560T53 582L169 712Q179 715 189 715Q197 715 204 712T218 702Q218 702 233 687T267 650T301 608T316 579Q316 565 294 559T245 553Z" />
<glyph unicode="&#xfc;" horiz-adv-x="368" d="M184 -10Q125 -10 93 8T47 60T34 145V481Q34 491 38 494T64 499T140 500V138Q140 118 143 105T155 85T184 78Q195 78 208 81T231 93V481Q231 491 235 494T260 499T333 500V27Q308 13 268 2T184 -10ZM118 556Q97 557
84 571T71 628Q71 659 84 678T125 697Q151 697 161 682T172 632Q172 596 159 576T118 556ZM245 556Q222 557 210 571T197 628Q197 659 210 678T251 697Q278 697 288 682T298 632Q297 596 284 576T245 556Z" />
<glyph unicode="&#xfd;" horiz-adv-x="345" d="M80 -193Q28 -193 10 -180T-9 -147Q-9 -133 -6 -117T4 -91Q14 -97 32 -102T71 -107Q91 -107 106 -88T128 -16L16 473Q13 487 15 492T40 499T116 500L153 306Q159 274 163 240T171 177T176 130T179 112Q179 112 180
130T185 176T192 239T201 306L228 471Q230 486 235 491T263 498T336 500L221 -24Q207 -89 189 -126T145 -178T80 -193ZM131 552Q119 552 110 566T97 594T92 608Q106 627 126 647T168 685T204 715T224 726Q241 726 254 701T271 651Q263 641 243 626T200 595T158
567T131 552Z" />
<glyph unicode="&#xfe;" horiz-adv-x="370" d="M78 -200Q51 -200 44 -191T37 -156V470Q67 488 105 498T185 509Q233 509 269 492T325 431T346 305Q346 225 338 169T315 78T282 24T245 -2T208 -10Q185 -10 168 -5T139 11V-192Q127 -196 112 -198T78 -200ZM175 76Q184
76 194 84T212 114T226 181T232 298Q232 354 226 380T209 414T178 421Q167 421 157 417T139 404V98Q146 84 155 80T175 76ZM37 231V690Q37 713 45 722T76 733T139 735V250L37 231Z" />
<glyph unicode="&#xff;" horiz-adv-x="345" d="M80 -193Q28 -193 10 -180T-9 -147Q-9 -133 -6 -117T4 -91Q14 -97 32 -102T71 -107Q91 -107 106 -88T128 -16L16 473Q13 487 15 492T40 499T116 500L153 306Q159 274 163 240T171 177T176 130T179 112Q179 112 180
130T185 176T192 239T201 306L228 471Q230 486 235 491T263 498T336 500L221 -24Q207 -89 189 -126T145 -178T80 -193ZM106 556Q85 557 72 571T59 628Q59 659 72 678T113 697Q139 697 149 682T160 632Q160 596 147 576T106 556ZM233 556Q210 557 198 571T185 628Q185
659 198 678T239 697Q266 697 276 682T286 632Q285 596 272 576T233 556Z" />
<glyph unicode="&#x2013;" horiz-adv-x="415" d="M32 238Q32 284 34 305T51 326H382Q382 281 380 260T363 238H32Z" />
<glyph unicode="&#x2014;" horiz-adv-x="700" d="M6 238Q6 284 8 305T25 326H694Q694 281 692 260T675 238H6Z" />
<glyph unicode="&#x2018;" horiz-adv-x="187" d="M96 572Q65 572 48 589T30 640Q30 671 40 699T66 749T95 784T117 798Q131 798 141 793T156 771Q145 752 140 739T133 714T129 689Q145 680 150 666T156 632Q156 607 139 590T96 572Z" />
<glyph unicode="&#x2019;" horiz-adv-x="187" d="M70 571Q56 571 46 576T31 599Q43 618 47 631T54 655T58 680Q43 690 37 704T31 737Q31 762 48 779T91 797Q123 797 140 780T157 729Q157 699 147 671T121 620T92 585T70 571Z" />
<glyph unicode="&#x201a;" horiz-adv-x="182" d="M70 -115Q56 -115 46 -110T31 -88Q43 -68 47 -55T54 -31T58 -7Q43 3 37 17T31 50Q31 75 48 93T91 111Q123 111 140 94T157 42Q157 12 147 -16T121 -67T92 -102T70 -115Z" />
<glyph unicode="&#x201c;" horiz-adv-x="347" d="M256 572Q224 572 207 589T190 640Q190 671 200 699T226 749T255 784T277 798Q290 798 301 793T315 771Q305 752 300 739T293 714T289 689Q305 680 310 666T315 632Q315 607 299 590T256 572ZM96 572Q65 572 48
589T30 640Q30 671 40 699T66 749T95 784T117 798Q131 798 141 793T156 771Q145 752 140 739T133 714T129 689Q145 680 150 666T156 632Q156 607 139 590T96 572Z" />
<glyph unicode="&#x201d;" horiz-adv-x="347" d="M230 571Q216 571 206 576T191 599Q202 618 207 631T214 655T217 680Q202 690 197 704T191 737Q191 762 207 779T250 797Q283 797 299 780T316 729Q316 699 306 671T281 620T252 585T230 571ZM70 571Q56 571 46
576T31 599Q43 618 47 631T54 655T58 680Q43 690 37 704T31 737Q31 762 48 779T91 797Q123 797 140 780T157 729Q157 699 147 671T121 620T92 585T70 571Z" />
<glyph unicode="&#x201e;" horiz-adv-x="342" d="M230 -115Q216 -115 206 -110T191 -88Q202 -68 207 -55T214 -31T217 -7Q202 3 197 17T191 50Q191 75 207 93T250 111Q283 111 299 94T316 42Q316 12 306 -16T281 -67T252 -102T230 -115ZM70 -115Q56 -115 46 -110T31
-88Q43 -68 47 -55T54 -31T58 -7Q43 3 37 17T31 50Q31 75 48 93T91 111Q123 111 140 94T157 42Q157 12 147 -16T121 -67T92 -102T70 -115Z" />
<glyph unicode="&#x2022;" horiz-adv-x="231" d="M117 201Q68 201 51 223T33 285Q33 320 55 346T117 373Q164 373 182 349T201 285Q201 250 179 226T117 201Z" />
<glyph unicode="&#x2039;" horiz-adv-x="239" d="M154 0Q154 0 144 15T117 55T82 109T48 166T21 217T10 250Q10 260 20 282T47 333T81 390T116 445T142 485T153 500Q173 500 186 488T206 462T213 448Q213 436 206 417T186 376T159 332T133 291T113 261T105 250Q105
250 113 240T133 211T160 172T186 129T207 89T215 58Q215 58 208 43T187 14T154 0Z" />
<glyph unicode="&#x203a;" horiz-adv-x="239" d="M85 0Q85 0 76 3T55 13T33 31T24 58Q24 70 32 88T52 128T79 171T105 211T126 239T134 250Q134 250 126 261T106 290T80 331T54 376T33 417T25 448Q25 462 34 471T55 487T76 497T86 500Q86 500 96 485T123 445T157
391T191 333T218 283T229 250Q229 240 219 217T192 166T157 109T123 55T96 15T85 0Z" />
</font>
</defs>
</svg>
