<?xml version="1.0" standalone="no"?>
<!DOCTYPE svg PUBLIC "-//W3C//DTD SVG 1.1//EN" "http://www.w3.org/Graphics/SVG/1.1/DTD/svg11.dtd">
<svg xmlns="http://www.w3.org/2000/svg">
<defs >
<font id="YanoneKaffeesatz" horiz-adv-x="405" ><font-face
    font-family="Yanone Kaffeesatz ExtraLight Light"
    units-per-em="1000"
    panose-1="0 0 0 0 0 0 0 0 0 0"
    ascent="735"
    descent="-200"
    alphabetic="0" />
<glyph unicode=" " horiz-adv-x="178" />
<glyph unicode="!" horiz-adv-x="187" d="M72 182L67 694Q67 700 72 702T89 706T123 707L117 203Q117 194 112 190T98 184T72 182ZM93 -5Q73 -5 64 6T55 36Q55 52 65 64T93 76Q112 76 122 65T132 36Q132 19 122 7T93 -5Z" />
<glyph unicode="&quot;" horiz-adv-x="235" d="M45 584Q44 589 43 610T40 660T38 717T37 763T40 783Q44 785 53 785T72 785T86 784Q87 765 86 733T81 667T76 611T71 585Q70 584 64 584T51 583T45 584ZM157 584Q156 589 155 610T152 660T150 717T149 763T152 783Q156
785 166 785T185 785T198 784Q199 765 198 733T194 667T188 611T183 585Q182 584 176 584T163 583T157 584Z" />
<glyph unicode="#" horiz-adv-x="438" d="M265 107L285 487Q286 497 294 498T327 499L307 119Q306 110 298 109T265 107ZM103 107L123 487Q124 497 133 498T166 499L146 119Q145 110 137 109T103 107ZM42 202Q42 227 43 234T54 241H396Q396 217 395 210T384 202H42ZM42
372Q42 397 43 404T54 411H396Q396 387 395 380T384 372H42Z" />
<glyph unicode="$" horiz-adv-x="438" d="M200 -7Q154 -7 126 1T85 19T71 34Q71 37 73 44T79 58T88 69Q102 57 128 48T200 38Q266 38 294 70T322 154Q322 188 306 216T251 282L139 384Q109 413 92 441T74 500Q74 553 115 585T233 617Q277 617 304 610T345 596T358
585Q358 579 355 568T344 551Q333 559 306 567T237 575Q185 575 153 558T121 499Q121 476 136 454T176 408L300 296Q339 260 354 227T369 153Q369 108 353 72T300 14T200 -7ZM194 -121V12H234V-100Q234 -114 226 -117T194 -121ZM208 589V715Q208 729 218 732T249
736V588L208 589Z" />
<glyph unicode="%" horiz-adv-x="720" d="M204 340Q161 340 131 353T84 405T67 524Q67 620 104 664T208 708Q252 708 281 692T326 636T341 524Q341 431 305 386T204 340ZM202 377Q231 377 252 392T286 441T298 524Q298 583 288 614T258 658T209 670Q164 670 138
637T111 519Q111 462 121 431T151 389T202 377ZM156 -8Q156 -8 152 -7T143 -4T133 1T128 10L556 708Q556 708 563 706T576 699T583 687Q583 686 565 657T517 577T449 466T370 338T292 211T223 100T174 21T156 -8ZM516 -8Q473 -8 443 5T396 57T379 176Q379 272 416
316T520 360Q564 360 593 344T638 288T653 176Q653 83 617 38T516 -8ZM514 29Q543 29 564 44T598 93T610 176Q610 235 600 266T570 310T521 322Q476 322 450 289T423 171Q423 114 433 83T463 41T514 29Z" />
<glyph unicode="&amp;" horiz-adv-x="517" d="M462 -9Q456 -9 432 13T372 74T296 162T216 267T145 377T93 481T73 568Q73 619 95 649T156 693T240 706Q304 706 343 691T382 664Q382 654 379 645T371 632Q346 649 314 657T243 666Q212 666 184 658T138 629T120
563Q120 530 141 481T199 376T278 263T362 157T439 74T492 27Q491 21 487 13T476 -2T462 -9ZM222 -10Q166 -10 130 6T75 48T47 107T39 172Q39 218 59 256T109 323T173 365L194 330Q166 319 142 297T102 242T86 169Q86 147 91 123T111 79T152 46T219 33Q269 33 301
53T353 105T380 170T391 233T394 277Q394 330 381 373T347 448T300 497Q321 500 339 501T373 502T403 503Q428 503 451 503T495 501Q496 498 496 493T496 481Q496 472 489 468T456 463L374 464Q385 454 400 431T426 368T437 270Q437 250 434 216T420 143T386 69T323
12T222 -10Z" />
<glyph unicode="&apos;" horiz-adv-x="123" d="M45 584Q44 589 43 610T40 660T38 717T37 763T40 783Q44 785 53 785T72 785T86 784Q87 765 86 733T81 667T76 611T71 585Q70 584 64 584T51 583T45 584Z" />
<glyph unicode="(" horiz-adv-x="295" d="M244 -198Q240 -198 221 -177T176 -113T128 -7T88 138T71 323Q71 421 88 498T130 633T180 729T225 786T247 805Q257 805 262 798T271 775Q250 752 224 713T173 618T133 489T117 324Q117 224 134 143T176 -1T228 -105T271
-167Q269 -180 262 -189T244 -198Z" />
<glyph unicode=")" horiz-adv-x="295" d="M50 -198Q40 -198 34 -189T24 -167Q42 -145 67 -104T118 -1T161 142T178 324Q178 414 163 487T123 616T73 712T24 775Q28 791 33 798T48 805Q50 805 69 787T114 730T165 635T206 499T223 323Q223 223 207 141T167 -4T118
-110T74 -176T50 -198Z" />
<glyph unicode="*" horiz-adv-x="472" d="M121 267Q115 258 107 261T90 273T78 291L197 428Q203 435 209 433T221 423L121 267ZM186 464L22 517Q22 531 28 541T42 557T58 559L201 483Q203 473 199 467T186 464ZM338 252L248 416Q245 423 248 427T262 435L374 288Q380
281 375 274T360 261T338 252ZM224 498L211 671Q210 678 218 681T237 683T260 676L247 508Q246 501 242 498T224 498ZM273 461Q265 470 266 477T275 489L433 561Q442 555 446 545T450 524T441 511L273 461Z" />
<glyph unicode="+" horiz-adv-x="438" d="M45 261Q45 286 46 294T57 303H395Q395 279 394 270T382 261H45ZM199 107V445Q199 454 208 455T241 457V119Q241 110 233 109T199 107Z" />
<glyph unicode="," horiz-adv-x="178" d="M67 -110Q61 -110 55 -106T48 -94Q65 -66 71 -44T78 3Q69 8 64 17T59 39Q59 55 69 65T95 76Q111 76 121 67T131 33Q131 10 123 -15T105 -61T84 -96T67 -110Z" />
<glyph unicode="-" horiz-adv-x="294" d="M45 261Q45 286 47 294T58 303H249Q249 279 248 270T237 261H45Z" />
<glyph unicode="." horiz-adv-x="178" d="M91 -5Q71 -5 62 6T53 36Q53 52 63 64T91 76Q111 76 120 65T130 36Q130 19 120 7T91 -5Z" />
<glyph unicode="/" horiz-adv-x="296" d="M10 -20L236 750Q239 757 242 760T256 764T286 765L61 -7Q59 -13 55 -16T40 -19T10 -20Z" />
<glyph unicode="0" horiz-adv-x="438" d="M217 -8Q153 -8 114 24T57 124T39 296Q39 443 82 521T225 600Q322 600 360 528T399 305Q399 203 381 133T323 28T217 -8ZM216 34Q267 34 297 65T340 157T353 308Q353 434 326 496T227 558Q151 558 119 488T86 288Q86 198
100 142T143 60T216 34Z" />
<glyph unicode="1" horiz-adv-x="438" d="M40 0Q39 5 39 18T39 36Q39 38 53 39T89 41T135 42T177 43T202 43L217 552Q213 552 198 550T164 543T125 536T94 530T81 527Q78 530 76 541T74 561Q74 563 90 567T132 577T182 588T226 597T249 601Q254 601 258 600T264
597L251 43H345Q368 43 383 44T399 46Q399 31 399 16T393 0H40Z" />
<glyph unicode="2" horiz-adv-x="438" d="M42 0Q42 2 41 7T39 19Q39 33 45 41T62 68Q89 112 124 152T194 231T260 307T309 385T328 469Q328 495 320 514T292 545T230 556Q193 556 162 551T107 536T67 516Q64 526 63 534T61 551Q61 559 82 570T143 591T234 600Q293
600 323 585T365 541T377 470Q377 422 358 379T308 295T240 214T166 132T98 43H302Q310 43 325 43T358 44T386 45T398 46Q398 29 398 15T392 0H42Z" />
<glyph unicode="3" horiz-adv-x="438" d="M163 -100Q106 -100 78 -85T50 -57Q50 -44 52 -36T57 -22Q78 -39 103 -47T166 -56Q219 -56 258 -28T318 48T340 155Q340 193 326 216T289 250T235 266T174 273L172 306Q237 343 276 386T315 477Q315 492 309 510T282 542T220
556Q162 556 125 545T59 515Q55 523 55 533T54 549Q54 564 99 582T225 600Q282 600 312 583T353 540T364 484Q364 446 346 413T300 353T241 304Q279 300 312 285T366 239T387 153Q387 79 360 22T282 -68T163 -100Z" />
<glyph unicode="4" horiz-adv-x="438" d="M267 0V163H53Q48 168 45 177T42 195Q42 210 51 239T76 305T114 382T161 462T214 537T268 596Q275 601 280 602T291 604Q300 604 306 602T315 597L312 206Q347 206 374 206T402 207Q402 207 403 204T404 189Q404 179 401
171T389 163H312V18Q312 9 311 5T300 1T267 0ZM84 206H267L275 542Q250 515 222 478T166 395T117 302T84 206Z" />
<glyph unicode="5" horiz-adv-x="438" d="M159 -100Q100 -100 71 -85T41 -60Q41 -49 42 -41T47 -23Q66 -39 93 -48T158 -57Q228 -57 268 -24T325 65T342 190Q342 240 324 271T279 318T219 340T158 346Q116 346 86 339T51 330L78 600H384Q384 582 383 573T375 561T357
558Q354 558 336 558T290 558T233 559T177 559T134 559T117 560L98 378Q100 379 117 382T173 385Q204 386 241 380T311 355T367 297T389 194Q389 106 368 40T296 -63T159 -100Z" />
<glyph unicode="6" horiz-adv-x="438" d="M210 -9Q155 -9 122 13T71 75T47 170T41 292Q41 405 59 483T109 609T183 679T271 701Q301 701 326 698T366 689T381 673Q381 664 380 655T377 640Q356 649 333 653T269 657Q218 657 176 619T108 499T84 290Q84 236 89
190T107 108T145 53T211 33Q259 33 291 58T340 127T357 232Q357 316 325 355T235 394Q183 394 140 358T71 252V303Q92 370 137 403T247 437Q314 437 357 392T401 243Q401 122 355 57T210 -9Z" />
<glyph unicode="7" horiz-adv-x="438" d="M131 -84Q120 -84 110 -83T92 -80T85 -72Q103 12 126 89T177 236T232 365T289 474T344 559Q337 559 298 559T199 558T69 558Q64 558 61 563T56 578T54 600H414Q356 510 302 405T203 178T131 -84Z" />
<glyph unicode="8" horiz-adv-x="438" d="M229 -9Q165 -9 124 15T63 83T43 181Q43 229 63 270T118 340T190 384L220 393Q254 408 284 430T333 480T352 543Q352 581 340 604T309 641T269 658T226 663Q192 663 162 650T113 611T94 541Q94 510 108 485T155 436Q172
423 204 408T271 374T335 328Q365 302 384 268T403 181Q403 123 384 81T326 15T229 -9ZM227 35Q291 35 325 75T360 181Q360 229 341 257T296 307Q272 329 238 346T169 381T110 418Q79 439 65 471T50 538Q50 596 74 633T137 688T222 706Q250 706 280 700T336 677T378
628T395 545Q395 499 374 465T321 407T259 366L230 357Q192 345 159 320T106 259T86 182Q86 118 121 77T227 35Z" />
<glyph unicode="9" horiz-adv-x="438" d="M146 -103Q114 -103 89 -99T64 -82Q64 -74 65 -65T68 -51Q88 -56 106 -58T143 -60Q199 -60 239 -35T305 37T343 154T356 312Q356 365 352 411T336 493T298 548T230 568Q160 568 122 517T83 364Q83 281 118 242T207 203Q257
203 298 238T369 337V289Q346 228 304 194T196 160Q152 160 117 181T60 245T39 356Q39 481 85 545T230 610Q283 610 316 592T367 536T392 442T399 308Q399 98 335 -2T146 -103Z" />
<glyph unicode=":" horiz-adv-x="178" d="M90 346Q71 346 62 357T53 387Q53 403 62 415T90 427Q110 427 119 416T129 387Q129 370 119 358T90 346ZM90 -5Q71 -5 62 6T53 36Q53 52 62 64T90 76Q110 76 119 65T129 36Q129 19 119 7T90 -5Z" />
<glyph unicode=";" horiz-adv-x="178" d="M65 -110Q59 -110 53 -106T45 -94Q62 -66 68 -44T75 3Q67 8 62 17T57 39Q57 55 67 65T92 76Q109 76 118 67T128 33Q128 10 121 -15T103 -61T82 -96T65 -110ZM92 346Q73 346 64 357T55 387Q55 403 64 415T92 427Q112 427
121 416T131 387Q131 370 121 358T92 346Z" />
<glyph unicode="&lt;" horiz-adv-x="400" d="M330 116Q324 116 308 123L54 234Q46 246 46 261Q46 269 50 275T62 286L332 419Q340 411 343 403T348 389Q348 378 339 374L106 259L351 153Q351 135 344 126T330 116Z" />
<glyph unicode="=" horiz-adv-x="438" d="M45 345Q45 370 46 378T57 387H395Q395 363 394 354T382 345H45ZM45 176Q45 201 46 209T57 218H395Q395 194 394 185T382 176H45Z" />
<glyph unicode="&gt;" horiz-adv-x="400" d="M68 110Q60 119 57 127T53 141Q53 152 62 156L295 271L49 377Q50 394 57 404T70 414Q77 414 93 407L347 296Q355 284 355 269Q355 262 351 255T339 244L68 110Z" />
<glyph unicode="?" horiz-adv-x="296" d="M107 193Q107 193 103 205T97 238T100 286T122 343Q137 369 156 393T193 442T223 497T235 561Q235 596 225 617T198 648T164 662T132 665Q101 665 76 657T32 634Q30 640 29 648T27 669Q27 678 43 687T86 703T143 710Q169
710 193 704T238 681T270 638T282 568Q282 524 269 490T236 427T196 375T163 328Q144 295 143 266T145 219T148 197Q146 194 139 193T123 191T107 193ZM129 -5Q109 -5 100 6T91 36Q91 52 101 64T129 76Q148 76 158 65T168 36Q168 19 158 7T129 -5Z" />
<glyph unicode="@" horiz-adv-x="760" d="M393 -189Q338 -189 288 -182T195 -150T121 -77T73 55T55 265Q55 380 81 460T154 590T265 662T408 685Q510 685 576 652T674 545T707 353Q707 253 695 189T662 86T620 30T579 8T547 3Q518 3 499 17T471 46L480 77Q493
60 509 51T543 42Q552 42 567 48T598 72T629 123T653 211T662 347Q662 453 637 518T556 614T407 645Q314 645 245 609T138 488T100 259Q100 151 114 78T154 -40T216 -107T295 -138T389 -146Q448 -146 491 -137T566 -116T623 -90Q626 -95 630 -105T635 -127Q635
-135 606 -149T522 -176T393 -189ZM378 37Q396 37 414 42T445 56T458 78L465 271Q454 273 439 274T410 276Q377 276 350 266T306 228T288 149Q286 101 298 77T331 45T378 37ZM371 1Q336 0 307 10T261 53T245 151Q248 215 269 249T325 297T403 310Q419 310 435 309T465
303Q465 303 466 325T468 367Q469 402 459 420T428 445T380 452Q346 452 320 447T270 428Q268 434 267 441T265 454Q266 463 274 470Q291 479 320 486T396 493Q453 493 482 467T510 374L503 153Q502 117 501 94T498 57Q497 45 494 39T487 31Q477 22 449 12T371
1Z" />
<glyph unicode="A" horiz-adv-x="436" d="M36 -1Q32 -1 25 -1T8 0L200 698Q201 704 215 704Q220 704 225 704T234 702L427 12Q429 5 426 2T409 -1Q404 -1 397 -1T381 0L263 442Q252 484 243 523T226 593T218 639Q216 624 210 593T194 523T172 442L59 9Q57 3 53
1T36 -1ZM98 199V242H352V199H98Z" />
<glyph unicode="B" horiz-adv-x="398" d="M59 0V683Q59 691 64 695T84 700H184Q212 700 241 694T295 672T335 627T351 548Q351 488 335 454T295 405T251 386Q267 386 287 380T327 358T359 314T372 239Q372 176 359 133T324 64T276 24T225 5T179 0H59ZM104 41H179Q206
41 231 50T277 81T310 140T322 235Q322 280 311 305T281 342T235 358T179 361H104V41ZM104 402H189Q221 402 246 414T287 458T303 542Q303 590 286 615T241 649T183 659H104V402Z" />
<glyph unicode="C" horiz-adv-x="358" d="M207 -9Q184 -9 161 -5T117 17T78 69T51 163T41 315Q41 422 52 493T83 608T128 673T180 702T234 709Q266 709 286 701T317 682T327 660Q327 652 325 644T318 632Q314 636 303 643T276 658T239 665Q217 665 196 659T155
632T121 574T98 472T89 313Q89 224 99 170T128 87T168 50T214 40Q250 40 280 56T323 89Q326 83 329 76T332 59Q332 46 316 30T271 2T207 -9Z" />
<glyph unicode="D" horiz-adv-x="419" d="M60 0V683Q60 691 65 695T85 700H185Q233 700 269 683T330 629T367 533T380 387Q380 266 365 190T321 73T257 16T180 0H60ZM105 44H180Q209 44 236 55T284 103T318 207T331 390Q331 462 322 513T295 596T249 642T183 657H105V44Z" />
<glyph unicode="E" horiz-adv-x="343" d="M61 0V688Q61 688 63 694T74 700H313Q313 682 313 673T310 661T303 658H106V42H313Q313 23 312 14T309 3T302 0H61ZM75 361V404H291Q291 378 290 370T281 361H75Z" />
<glyph unicode="F" horiz-adv-x="332" d="M61 0V688Q61 688 63 694T74 700H313Q313 682 313 673T310 662T303 659H106V12Q106 12 105 6T94 0H61ZM75 362V405H291Q291 378 290 370T281 362H75Z" />
<glyph unicode="G" horiz-adv-x="404" d="M228 -10Q185 -10 151 4T92 55T54 161T41 341Q41 456 56 528T99 639T165 694T250 710Q295 710 324 697T354 666Q354 659 353 652T347 637Q332 650 311 657T258 665Q219 665 188 651T135 602T100 504T88 344Q88 240 99
179T129 86T174 45T230 35Q256 35 275 42T305 60T319 77V354H213V381Q213 394 227 394H363L362 51Q356 42 341 28T298 2T228 -10Z" />
<glyph unicode="H" horiz-adv-x="441" d="M336 0V688Q336 694 338 696T349 699T381 700V12Q381 6 380 4T369 1T336 0ZM59 0V688Q59 694 61 696T72 699T104 700V12Q104 6 103 4T92 1T59 0ZM84 360V404H358V360H84Z" />
<glyph unicode="I" horiz-adv-x="164" d="M59 0V676Q59 688 61 693T73 699T105 700V12Q105 6 103 4T92 1T59 0Z" />
<glyph unicode="J" horiz-adv-x="298" d="M117 -10Q85 -10 63 -3T30 17T18 40Q18 50 21 57T28 70Q42 54 63 43T113 32Q151 32 168 53T190 109T194 184V677Q194 689 195 693T206 699T239 700V169Q239 138 235 107T220 49T184 6T117 -10Z" />
<glyph unicode="K" horiz-adv-x="391" d="M352 -1Q345 -1 338 -1T323 0Q300 74 279 127T237 218T197 283T156 331Q142 346 126 354T92 368V380L320 698Q328 700 335 700T349 700Q377 700 365 682L149 394Q214 356 270 264T369 15Q371 6 367 3T352 -1ZM58 0V688Q58
694 60 696T71 699T104 700V12Q104 6 102 4T91 1T58 0Z" />
<glyph unicode="L" horiz-adv-x="332" d="M59 0V682Q59 691 61 695T72 699T105 700V43H313V12Q313 4 310 2T301 0H59Z" />
<glyph unicode="M" horiz-adv-x="502" d="M233 138L175 323Q175 326 168 349T150 406T128 477T107 548T90 602T83 623L100 700L214 331Q216 326 221 307T234 264T246 225T251 208Q251 208 256 224T267 263T279 304T286 328L398 688L415 618Q415 618 409 597T394
544T373 475T351 405T334 349T326 323L267 147Q264 138 256 138H233ZM59 0V688Q59 695 62 697T71 700H100L104 644L96 597Q96 597 96 580T97 533T99 470T101 404T102 348T103 314L104 12Q104 6 102 4T90 1T59 0ZM397 0L399 306Q399 316 399 341T401 401T402 472T404
539T405 590T406 609L398 624V688Q399 690 401 695T410 700Q427 700 434 700T442 700T443 700V12Q443 6 441 4T430 1T397 0Z" />
<glyph unicode="N" horiz-adv-x="460" d="M359 0L234 283Q232 289 221 317T192 386T157 471T123 554T97 617T87 641L65 672L71 700H102L224 422Q226 416 237 388T265 320T300 237T333 156T359 95T369 71L396 28L389 0H359ZM59 0V688Q59 700 71 700L104 688L100
631Q101 626 101 598T102 530T103 444T103 358T104 290T104 258V12Q104 6 102 4T91 1T59 0ZM389 0L357 12L360 79Q359 84 359 112T358 180T358 265T357 350T357 418T357 449V688Q357 694 358 696T369 699T402 700V12Q402 0 389 0Z" />
<glyph unicode="O" horiz-adv-x="452" d="M223 -10Q175 -10 141 8T84 67T52 179T41 355Q41 484 62 562T126 675T234 710Q282 710 316 692T371 632T401 523T411 356Q411 222 392 142T331 26T223 -10ZM224 36Q274 36 304 67T348 168T363 357Q363 472 350 539T309
635T233 664Q184 664 153 633T106 531T90 340Q90 229 103 163T146 66T224 36Z" />
<glyph unicode="P" horiz-adv-x="373" d="M81 300Q67 300 68 304T70 316V683Q70 688 70 694T76 700H177Q240 700 277 676T331 609T348 512Q348 457 336 418T301 352T245 313T172 300H81ZM59 0V688Q59 694 62 697T71 700H92Q101 700 102 694T104 688V12Q104 6 102
4T91 1T59 0ZM99 343H174Q218 343 245 363T286 421T300 516Q300 555 290 587T253 639T179 659H99V343Z" />
<glyph unicode="Q" horiz-adv-x="452" d="M319 -132Q276 -132 251 -101T211 2L261 9Q270 -50 285 -71T327 -93Q348 -93 364 -89T392 -76Q397 -82 398 -89T400 -102Q400 -111 388 -118T357 -128T319 -132ZM223 -10Q175 -10 141 8T84 67T52 179T41 355Q41 484 62
562T126 675T234 710Q282 710 316 692T371 632T401 523T411 356Q411 222 392 142T331 26T223 -10ZM224 36Q274 36 304 67T348 168T363 357Q363 472 350 539T309 635T233 664Q184 664 153 633T106 531T90 340Q90 229 103 163T146 66T224 36Z" />
<glyph unicode="R" horiz-adv-x="380" d="M81 300Q67 300 68 304T70 316V683Q70 688 70 694T76 700H177Q240 700 277 676T331 609T348 512Q348 457 336 418T301 352T245 313T172 300H81ZM59 0V688Q59 688 60 694T71 700H92Q101 700 102 694T104 688V12Q104 6 102
4T91 1T59 0ZM322 -1Q317 -1 311 -1T296 0Q287 84 269 143T232 239T200 292T187 309Q187 309 186 314T192 324L213 335Q221 335 225 329Q225 329 240 309T277 249T317 151T344 14Q344 6 341 3T322 -1ZM99 343H174Q218 343 245 363T286 421T300 514Q300 554 290
587T253 639T179 659H99V343Z" />
<glyph unicode="S" horiz-adv-x="374" d="M168 -10Q98 -10 67 8T36 41Q36 49 39 57T51 73Q67 58 93 47T166 36Q234 36 264 72T294 166Q294 211 278 246T220 325L109 437Q75 474 57 506T39 578Q39 636 82 673T204 710Q270 710 299 696T329 668Q329 661 326 654T316
640Q304 650 276 659T205 669Q152 669 119 644T86 579Q86 547 102 521T144 468L267 345Q310 300 325 261T341 171Q341 119 324 78T268 14T168 -10Z" />
<glyph unicode="T" horiz-adv-x="365" d="M158 0V685Q158 685 159 688T170 692H191Q200 692 201 689T203 685V12Q203 6 201 4T190 1T158 0ZM6 657V688Q6 700 19 700H359V669Q359 663 356 660T346 657H6Z" />
<glyph unicode="U" horiz-adv-x="467" d="M240 -10Q178 -10 142 8T88 59T65 132T59 219V687Q59 694 61 696T72 699T105 700V218Q105 181 109 148T127 88T168 48T240 33Q277 33 311 40T362 56V688Q362 695 364 697T376 699T408 700V24Q388 11 341 1T240 -10Z" />
<glyph unicode="V" horiz-adv-x="421" d="M205 -9Q195 -9 188 7T174 49Q162 91 146 153T111 287T74 428T40 556T16 648T7 682Q5 691 5 695T16 700H51L172 242Q182 204 189 170T203 104T215 43Q221 73 226 104T239 169T255 242L366 682Q368 691 370 695T380 700H417L238
-7Q232 -8 225 -8T205 -9Z" />
<glyph unicode="W" horiz-adv-x="638" d="M457 -10Q449 -10 443 4T432 39L347 400Q346 409 342 432T333 485T324 541T317 585T314 603L301 645Q299 653 300 657T310 662H341L434 242Q443 202 448 173T457 117T465 60H468Q473 97 479 144T495 242L585 682Q587 691
589 695T599 700H635L490 -7Q485 -7 481 -8T471 -9T457 -10ZM168 -9Q161 -9 155 7T142 52Q134 95 120 157T91 291T61 431T34 557T14 648T6 682Q5 690 6 695T15 700H51L150 242Q158 202 163 172T172 116T181 58H184Q189 108 195 151T212 242L294 645Q296 653 298
657T308 662H327Q337 662 337 657T336 645L322 603Q322 603 319 586T312 541T304 486T296 434T291 402L204 -7Q198 -8 190 -8T168 -9Z" />
<glyph unicode="X" horiz-adv-x="427" d="M11 0L190 375L213 389Q213 389 225 418T255 490T293 577L345 692Q347 696 349 698T361 700T397 700L238 345L219 339Q219 339 207 312T177 244T136 157L63 6Q59 0 51 0H11ZM362 0L289 156Q268 202 250 243T219 312T207
339L190 353L38 692Q36 696 37 698T50 700T89 700L144 577Q164 532 182 489T211 418T223 390L238 380L414 11Q417 6 415 3T408 0H362Z" />
<glyph unicode="Y" horiz-adv-x="360" d="M193 254L171 255L6 692Q5 697 6 698T19 700T56 700L108 555Q120 524 133 487T157 414T175 355T183 327Q183 331 190 355T209 414T233 487T257 556L305 691Q306 696 309 698T322 700T355 700L193 254ZM159 0V316H204V12Q204
6 203 4T192 1T159 0Z" />
<glyph unicode="Z" horiz-adv-x="396" d="M36 0Q32 2 30 7T27 19Q27 25 28 30T32 42L311 658H90Q73 658 63 658T49 657V687Q49 700 62 700H360Q362 697 363 693T365 683Q365 672 360 660L78 42H315Q330 42 343 43T365 47V12Q365 7 363 4T353 0H36Z" />
<glyph unicode="[" horiz-adv-x="426" d="M160 -198V803Q160 811 162 814T172 819T196 821H416Q416 803 415 795T410 784T395 781H205V-155H414Q414 -176 412 -185T405 -196T392 -198H160Z" />
<glyph unicode="\" horiz-adv-x="294" d="M239 -30L11 750Q10 757 12 760T24 764T54 765L283 -17Q285 -23 282 -26T269 -29T239 -30Z" />
<glyph unicode="]" horiz-adv-x="426" d="M10 -200Q10 -182 11 -174T17 -163T32 -160H221V779H12Q12 801 14 809T22 820T34 822H266V-182Q266 -189 264 -193T254 -198T230 -200H10Z" />
<glyph unicode="^" horiz-adv-x="430" d="M82 214Q72 214 67 221T61 238L218 382L358 253Q363 248 364 244T366 237Q366 228 360 222T343 213L214 324L103 225Q95 218 90 216T82 214Z" />
<glyph unicode="_" horiz-adv-x="385" d="M18 -88Q18 -63 19 -55T30 -46H368Q368 -70 367 -79T355 -88H18Z" />
<glyph unicode="`" horiz-adv-x="257" d="M190 569Q168 585 144 602T100 636T65 663T49 676Q50 683 56 698T71 713Q72 713 85 703T118 677T162 639T208 596Q208 596 205 590T198 576T190 569Z" />
<glyph unicode="a" horiz-adv-x="372" d="M183 -10Q156 -11 131 -7T85 12T52 56T39 138Q39 191 52 223T87 272T137 294T194 300Q216 300 238 298T278 289Q278 289 278 306T278 344T278 380Q278 416 267 434T237 459T193 466Q143 466 104 458T45 441Q42 448 41
454T39 467Q39 473 40 478T46 485Q61 494 105 502T203 510Q262 510 292 484T323 389V327Q323 270 323 216T321 114T317 27Q302 18 270 4T183 -10ZM191 30Q218 30 241 38T273 55Q275 78 276 111T277 182T278 254Q263 259 243 261T206 264Q183 264 162 260T123 244T96
206T85 139Q85 101 93 79T117 47T151 33T191 30Z" />
<glyph unicode="b" horiz-adv-x="408" d="M177 -10Q138 -10 110 -3T62 20V712Q62 724 66 728T79 734T107 735V467Q132 487 163 498T238 510Q279 510 309 492T355 433T372 320Q372 232 360 172T327 76T281 22T229 -3T177 -10ZM182 32Q202 32 226 41T273 77T309
159T323 305Q323 368 312 403T278 453T219 468Q187 468 159 458T107 424V51Q116 44 134 38T182 32Z" />
<glyph unicode="c" horiz-adv-x="337" d="M193 -10Q160 -10 133 -1T86 33T54 108T43 239Q43 329 59 383T103 464T162 501T224 510Q257 510 282 499T308 472Q308 467 306 459T301 444Q289 453 269 460T221 468Q200 468 177 461T133 431T101 361T89 236Q89 171 97
131T121 70T157 40T205 31Q238 31 263 42T301 65Q305 57 306 51T308 37Q308 22 276 6T193 -10Z" />
<glyph unicode="d" horiz-adv-x="407" d="M206 -10Q172 -10 143 -2T91 30T56 104T43 238Q43 333 66 393T128 481T215 510Q242 510 263 505T301 487V712Q301 724 304 728T318 734T346 735V20Q322 7 286 -1T206 -10ZM211 32Q236 32 259 37T301 53V446Q285 459 269
464T226 469Q199 469 175 456T131 416T102 345T91 241Q91 171 100 130T125 67T162 39T211 32Z" />
<glyph unicode="e" horiz-adv-x="379" d="M206 -10Q171 -10 141 -2T88 30T53 100T41 222Q41 319 57 377T99 463T157 501T220 510Q286 510 315 468T345 352Q345 322 344 292T337 236Q295 228 249 224T163 219T97 218T71 219V258Q71 258 95 258T154 258T228 262T297
272Q299 291 300 308T301 341Q300 403 283 436T217 469Q195 469 173 462T130 430T99 356T87 221Q87 159 95 122T121 66T161 41T212 34Q247 34 279 43T335 69Q338 61 339 52T341 37Q341 27 322 16T273 -2T206 -10Z" />
<glyph unicode="f" horiz-adv-x="246" d="M94 0V460H15Q15 478 16 486T19 497T29 500H94V565Q94 623 109 657T149 710T201 734T255 740Q300 740 319 731T339 712Q339 706 338 699T334 686Q316 692 298 694T259 697Q238 697 217 694T179 677T150 637T139 564V500H249Q249
481 249 473T246 462T237 460H139V12Q139 9 137 5T127 0H94Z" />
<glyph unicode="g" horiz-adv-x="406" d="M195 -198Q129 -198 95 -182T49 -142T37 -92Q37 -60 56 -31T103 22T158 56L182 40Q160 31 137 10T99 -36T83 -85Q83 -104 91 -120T124 -145T198 -155Q270 -155 306 -124T343 -57Q343 -28 329 -13T290 8T231 18Q181 24
141 32T77 54T53 88Q53 104 65 122T95 157T133 187L166 174Q153 167 138 154T111 126T100 100Q100 85 144 74T255 56Q291 51 321 41T370 10T389 -52Q389 -88 368 -122T304 -177T195 -198ZM209 154Q146 154 112 178T66 243T53 330Q53 391 75 431T134 490T217 510Q227
510 245 508T277 500L288 479Q327 467 349 433T371 342Q371 291 355 248T303 180T209 154ZM212 192Q252 192 277 214T314 272T326 349Q326 413 297 443T215 473Q184 473 158 458T116 412T100 330Q100 294 107 263T139 212T212 192ZM370 464Q355 464 337 466T300
471T271 476T260 479L235 504H386Q388 502 389 497T391 484Q391 474 386 469T370 464Z" />
<glyph unicode="h" horiz-adv-x="402" d="M58 0V712Q58 724 61 728T75 734T103 735V466Q134 490 169 500T235 510Q284 510 310 494T345 447T354 375V12Q354 6 352 4T340 1T308 0V367Q308 412 292 439T221 467Q195 467 163 458T103 422V12Q103 6 101 4T90 1T58 0Z" />
<glyph unicode="i" horiz-adv-x="169" d="M62 0V477Q62 489 66 493T80 499T107 500V12Q107 6 106 4T95 1T62 0ZM339 598Q326 598 320 607T313 638Q314 657 321 667T342 678Q357 678 363 668T369 638Q368 618 361 608T339 598Z" />
<glyph unicode="j" horiz-adv-x="181" d="M-7 -195Q-61 -195 -89 -181T-117 -151Q-117 -143 -115 -137T-108 -124Q-91 -135 -68 -143T-9 -152Q26 -152 42 -138T63 -96T68 -26V477Q68 489 72 493T86 499T113 500V-37Q113 -83 104 -118T69 -174T-7 -195ZM345 598Q332
598 326 607T319 638Q320 657 327 667T348 678Q363 678 369 668T375 638Q374 618 367 608T345 598Z" />
<glyph unicode="k" horiz-adv-x="394" d="M61 0V712Q61 724 65 728T79 734T106 735V443Q138 476 180 493T254 510Q286 510 305 500T333 470T342 422Q342 387 329 360T296 313T258 281T229 263Q250 263 277 249T328 203T360 118Q363 96 363 70T360 14Q359 7 357
4T344 1T309 0Q316 49 314 85T302 148Q292 179 275 197T240 224T203 234T171 232Q161 229 146 224T118 213T106 208V12Q106 6 105 4T95 1T61 0ZM106 245Q158 263 200 286T268 340T294 412Q294 468 237 468Q207 468 173 452T106 397V245Z" />
<glyph unicode="l" horiz-adv-x="168" d="M61 0V712Q61 724 65 728T79 734T106 735V12Q106 6 104 4T93 1T61 0Z" />
<glyph unicode="m" horiz-adv-x="602" d="M61 0V477Q99 493 135 501T208 510Q266 510 291 490T322 432T328 341V12Q328 6 326 4T314 1T283 0V369Q283 403 280 425T261 458T208 469Q184 469 160 464T106 445V12Q106 6 104 4T92 1T61 0ZM283 0V454Q301 472 326 484T380
503T435 510Q485 510 508 493T539 444T547 363V12Q547 6 545 4T534 1T502 0V368Q502 421 489 444T429 468Q406 468 380 462T328 438V12Q328 6 326 4T314 1T283 0Z" />
<glyph unicode="n" horiz-adv-x="407" d="M59 0V475Q83 485 109 493T164 505T221 510Q276 510 305 495T346 449T358 371V12Q358 6 356 4T345 1T312 0V360Q312 416 295 442T221 469Q197 469 163 463T104 444V12Q104 6 102 4T91 1T59 0Z" />
<glyph unicode="o" horiz-adv-x="392" d="M191 -10Q156 -10 127 -1T78 34T46 112T35 249Q35 388 80 449T202 510Q254 510 288 488T339 409T356 250Q356 116 314 53T191 -10ZM192 30Q228 30 254 53T294 124T309 252Q309 341 296 388T259 452T200 470Q165 470 139
449T98 379T83 244Q83 178 90 136T111 71T146 39T192 30Z" />
<glyph unicode="p" d="M82 -197Q72 -197 67 -193T61 -178V469Q93 490 128 500T205 510Q256 510 293 491T350 426T370 297Q370 216 359 161T329 72T287 21T242 -3T200 -10Q167 -10 142 2T106 29V-193Q100 -195 94 -196T82 -197ZM190 32Q206 32 228 40T272 73T308
148T322 286Q322 359 309 398T269 453T202 469Q148 469 106 442V83Q121 57 144 45T190 32Z" />
<glyph unicode="q" horiz-adv-x="414" d="M325 -198Q321 -198 316 -198T307 -197V46Q289 20 259 5T189 -10Q166 -10 141 -2T93 29T56 99T42 222Q42 297 56 351T97 441T161 493T243 510Q278 510 304 503T353 478V-179Q353 -192 349 -195T325 -198ZM204 31Q232 31
261 47T307 100V450Q297 458 278 463T234 469Q189 469 157 443T108 362T91 220Q91 157 102 120T130 63T167 38T204 31Z" />
<glyph unicode="r" horiz-adv-x="279" d="M59 0V466Q92 489 126 499T192 510Q228 510 246 501T265 478Q265 472 263 464T258 450Q247 456 232 461T198 466Q172 466 149 459T105 436L104 12Q104 6 102 4T91 1T59 0Z" />
<glyph unicode="s" horiz-adv-x="377" d="M170 -10Q111 -10 77 2T43 31Q43 37 45 44T53 59Q76 45 102 39T167 32Q220 32 252 52T284 116Q284 148 270 172T222 220L114 293Q70 322 58 346T45 398Q45 433 65 458T122 496T207 510Q253 510 281 501T322 481T336 462Q336
450 324 436Q297 453 271 461T211 469Q162 469 129 451T95 398Q95 380 105 363T148 324L262 248Q298 220 315 191T333 123Q333 58 290 24T170 -10Z" />
<glyph unicode="t" horiz-adv-x="300" d="M193 -10Q152 -10 134 10T112 66T107 148V459H30Q30 478 30 486T33 497T41 500H107V660Q107 671 110 675T123 679T152 680V500H279Q279 482 279 473T277 462T269 459H152V146Q152 114 154 88T167 46T202 31Q224 31 238
35T268 48Q270 42 271 37T272 23Q272 12 261 5T231 -6T193 -10Z" />
<glyph unicode="u" horiz-adv-x="424" d="M210 -10Q151 -10 120 8T75 67T62 174V488Q62 494 64 496T75 499T108 500V167Q108 115 117 86T149 44T215 31Q233 31 262 36T316 56V488Q316 494 319 496T331 499T361 500V24Q328 6 287 -2T210 -10Z" />
<glyph unicode="v" horiz-adv-x="360" d="M172 -8Q166 -8 161 5T150 41L28 485Q27 492 29 495T41 499T73 500L121 321Q133 275 144 228T165 141T179 77T184 52H185Q185 52 189 76T202 140T221 227T244 323L286 487Q288 494 290 496T302 499T334 500L201 -7Q197
-8 187 -8T172 -8Z" />
<glyph unicode="w" horiz-adv-x="557" d="M387 -8Q383 -8 376 7T361 47L344 116Q332 164 322 210T302 296T287 367T278 415T274 433L267 465Q266 471 268 476T279 482H301L346 287Q356 244 365 204T382 131T393 79T397 60H400Q403 85 410 126T427 215T446 311L484
487Q485 494 487 496T499 499T531 500Q531 500 525 473T509 400T486 301T461 192T438 93T421 21T414 -7Q414 -7 405 -7T387 -8ZM156 -8Q151 -8 146 5T135 41Q127 73 116 117T94 212T70 312T48 400T33 463T27 487Q26 494 28 496T40 499T74 500L117 311Q128 262 137
217T154 137T164 81T168 60H171Q175 81 183 120T201 205T219 290L256 470Q257 477 260 479T272 482H284Q290 482 291 480T292 473T289 465L284 433Q284 433 281 416T272 368T258 296T240 210T218 116L190 -7Q190 -7 184 -7T169 -7T156 -8Z" />
<glyph unicode="x" horiz-adv-x="447" d="M25 0L202 273L222 289Q222 289 234 309T266 360T302 418L352 492Q355 496 357 498T370 500T406 500L244 250L229 243Q229 243 220 228T196 190T164 138T130 85L80 10Q78 5 73 3T58 1T25 0ZM370 0L313 86Q296 111 280
138T249 188T225 227T216 242L204 250L49 492Q48 496 49 497T61 499T97 500L152 416Q169 389 187 360T218 310T231 289L247 278L419 13Q423 7 422 4T410 1T370 0Z" />
<glyph unicode="y" horiz-adv-x="375" d="M73 -193Q40 -193 22 -186T3 -167Q3 -159 6 -151T13 -139Q25 -145 42 -148T72 -152Q101 -152 127 -122T170 -16L37 485Q36 493 37 496T47 499T80 500L163 185Q170 158 175 132T184 85T190 50T193 37Q193 37 195 50T200
84T209 132T221 187L295 485Q297 493 299 496T312 499T345 500L209 -32Q194 -93 174 -128T130 -178T73 -193Z" />
<glyph unicode="z" horiz-adv-x="375" d="M40 0Q40 0 37 6T33 23Q33 29 34 33T37 42L288 460H160Q120 460 89 459T39 455Q38 463 38 468T38 478Q38 489 41 494T53 500H336Q336 500 339 496T342 485Q342 480 341 474T336 460L86 43H213Q263 43 292 45T339 50Q339
46 339 39T340 28Q340 14 337 7T322 0H40Z" />
<glyph unicode="{" horiz-adv-x="289" d="M250 -151Q176 -151 142 -121T107 -17Q107 36 114 85T121 195Q121 237 104 254T60 276Q58 281 57 287T56 297Q56 316 70 324Q85 332 96 341T114 369T121 421Q121 478 114 528T107 628Q107 672 127 697T182 733T262 744Q266
738 268 731T271 717Q271 700 258 699Q227 698 203 690T166 664T153 610Q153 572 159 523T166 412Q166 359 149 336T104 301Q132 292 149 272T166 208Q166 144 160 94T153 -1Q153 -49 166 -71T204 -99T265 -109Q266 -115 266 -119T267 -127Q267 -137 263 -144T250
-151Z" />
<glyph unicode="|" horiz-adv-x="365" d="M160 -200V800Q160 808 163 811T175 814T205 815V-187Q205 -193 202 -196T190 -199T160 -200Z" />
<glyph unicode="}" horiz-adv-x="289" d="M27 -151Q23 -145 21 -138T19 -123Q19 -107 31 -106Q62 -104 86 -97T123 -70T136 -17Q136 21 130 70T124 181Q124 234 141 257T185 292Q157 301 141 321T124 386Q124 450 130 500T136 595Q136 643 123 664T85 692T24 703Q23
708 23 712T22 720Q22 731 26 737T39 744Q114 744 148 715T182 610Q182 557 175 509T168 398Q168 356 185 340T229 318Q232 312 232 307T233 297Q233 287 229 281T219 270Q204 261 193 252T175 225T168 173Q168 115 175 65T182 -35Q182 -78 162 -103T107 -140T27
-151Z" />
<glyph unicode="~" horiz-adv-x="400" d="M270 227Q243 227 224 235T191 253T161 271T126 279Q105 279 88 271T59 252T40 236Q32 231 24 238T13 259Q21 270 36 284T76 310T130 321Q156 321 173 313T203 295T233 278T274 270Q300 270 321 282T355 312Q365 322 375
315T388 292Q379 279 364 264T326 238T270 227Z" />
<glyph unicode="&#xa0;" horiz-adv-x="178" />
<glyph unicode="&#xa1;" horiz-adv-x="187" d="M66 -198L72 305Q72 314 77 318T91 324T117 326L122 -185Q122 -190 117 -193T99 -197T66 -198ZM96 428Q76 428 67 439T57 468Q57 486 67 497T96 509Q116 509 124 498T133 468Q133 452 124 440T96 428Z" />
<glyph unicode="&#xa2;" horiz-adv-x="438" d="M258 -10Q222 -10 192 -5T140 23T106 92T94 224Q94 318 110 375T154 461T213 499T275 509Q307 509 333 498T359 478Q359 475 359 469T357 455T352 443Q338 452 322 459T279 466Q255 466 231 458T186 426T153 353T141
222Q141 156 149 118T173 61T211 37T263 32Q290 32 313 42T353 66Q356 59 357 51T359 36Q359 28 345 18T309 -1T258 -10ZM221 -143V7H261V-121Q261 -135 252 -139T221 -143ZM240 497V620Q240 634 250 638T281 642V497H240Z" />
<glyph unicode="&#xa3;" horiz-adv-x="389" d="M101 0Q98 64 96 118T93 223T92 327Q92 408 104 460T137 542T186 583T249 595Q277 595 299 589T335 573T349 551Q349 543 347 536T340 521Q321 535 302 542T254 550Q229 550 208 542T171 510T146 444T137 332Q137
263 138 190T144 46L337 42Q340 36 340 31T341 21Q341 11 332 6T310 1T285 0H101ZM15 279Q15 304 16 312T27 321H290Q290 297 289 288T278 279H15Z" />
<glyph unicode="&#xa4;" horiz-adv-x="539" d="M269 68Q174 68 125 124T75 287Q75 395 126 451T277 508Q368 508 416 452T464 291Q464 183 414 126T269 68ZM47 31Q30 49 25 56T26 71L123 167L147 131L47 31ZM122 403L17 507Q34 524 41 529T56 528L146 438L122
403ZM484 41L392 133L416 168L522 62Q505 45 498 40T484 41ZM268 109Q342 109 381 156T421 294Q421 379 384 423T279 468Q202 468 161 420T119 280Q119 197 157 153T268 109ZM419 403L395 440L493 537Q510 520 515 513T514 498L419 403Z" />
<glyph unicode="&#xa5;" horiz-adv-x="438" d="M205 255L41 692Q40 697 41 698T54 700T91 700L143 555Q154 524 167 488T191 418T209 361T217 334Q217 338 224 361T243 417T267 488T291 556L340 691Q341 696 343 698T356 700T390 700L227 254L205 255ZM56 181Q56
203 59 211T76 220H208V181H56ZM194 0V316H239V12Q239 6 237 4T226 1T194 0ZM56 340Q56 362 59 370T76 379H184V340H56ZM223 181V220H375Q375 198 372 190T355 181H223ZM245 340V379H374Q374 358 371 349T354 340H245Z" />
<glyph unicode="&#xa6;" horiz-adv-x="225" d="M112 -197Q109 -197 103 -197T90 -194V204Q90 214 95 218T113 222Q118 222 123 222T135 219V-182Q135 -191 131 -194T112 -197ZM112 331Q109 331 103 331T90 334V724Q90 734 95 738T113 742Q118 742 123 742T135
739V347Q135 338 131 335T112 331Z" />
<glyph unicode="&#xa7;" horiz-adv-x="374" d="M238 192L222 229Q248 238 264 263T281 306Q281 332 272 349T245 386Q230 404 205 424T152 466T106 508Q83 534 72 552T61 599Q61 630 79 653T129 690T206 704Q253 704 282 689T317 662Q319 657 319 652Q319 645
316 638T307 624Q288 640 265 648T207 657Q161 657 136 639T110 593Q110 573 119 559T146 526Q161 511 185 491T236 448T278 406Q301 381 312 359T324 304Q324 284 315 263T288 223T238 192ZM169 -4Q122 -4 93 11T58 38Q57 41 57 43T56 48Q56 63 68 75Q87 60 110
52T168 43Q214 43 239 61T265 107Q265 127 256 141T229 174Q214 189 190 210T140 252T97 293Q74 319 63 341T51 395Q51 416 59 437T85 476T134 506L150 469Q123 460 109 437T94 394Q94 369 104 352T131 314Q146 297 171 276T224 234T270 191Q294 166 304 148T314
101Q314 70 297 47T247 10T169 -4Z" />
<glyph unicode="&#xa8;" horiz-adv-x="257" d="M74 598Q60 599 54 608T48 638Q49 657 56 667T77 677Q91 677 97 668T103 638Q102 619 96 609T74 598ZM181 598Q167 599 161 608T155 638Q156 657 163 667T184 677Q198 677 204 668T210 638Q209 619 203 609T181 598Z" />
<glyph unicode="&#xa9;" horiz-adv-x="462" d="M231 321Q186 321 151 330T91 363T53 430T40 540Q40 656 93 708T237 761Q298 761 339 741T402 673T423 540Q423 433 373 377T231 321ZM235 407Q209 407 190 414T161 447T150 527Q150 578 159 607T182 652T212 671T244
676Q260 676 275 670T290 659Q290 657 288 648T283 635Q276 639 269 642T249 645Q234 645 219 638T193 605T183 527Q183 486 190 467T209 443T239 437Q252 437 263 441T283 451Q285 447 287 439T290 429Q290 424 274 416T235 407ZM226 357Q274 357 310 377T366
439T386 543Q386 612 369 651T318 708T238 725Q166 725 122 683T77 536Q77 467 94 428T145 373T226 357Z" />
<glyph unicode="&#xaa;" horiz-adv-x="339" d="M166 289Q137 289 111 296T69 330T53 408Q53 460 69 485T113 519T173 528Q193 528 213 525T246 517V603Q246 633 234 647T205 665T169 669Q136 669 110 660T67 643Q60 648 59 660T62 679Q77 691 107 700T183 710Q211
710 234 702T271 673T286 616V317Q273 310 240 300T166 289ZM174 325Q195 325 216 330T246 341V481Q234 486 216 489T185 492Q159 492 138 487T104 464T91 405Q91 371 102 354T133 331T174 325Z" />
<glyph unicode="&#xab;" horiz-adv-x="418" d="M188 0Q188 0 177 17T147 60T110 118T72 178T43 228T32 255Q32 261 43 281T71 329T106 386T142 442T170 484T181 500Q191 500 197 495T206 483T209 477Q209 472 200 454T175 410T143 358T110 308T86 270T76 255Q76
255 85 240T111 201T144 149T178 96T203 52T213 29Q213 29 210 22T202 7T188 0ZM346 22Q346 22 335 37T306 75T269 126T231 180T202 226T191 250Q191 256 201 274T229 319T265 372T301 424T329 464T340 479Q348 479 354 474T363 463T367 457Q367 451 354 428T321
375T282 317T249 269T235 250Q235 250 248 232T282 185T323 128T357 77T371 49Q371 49 368 42T360 29T346 22Z" />
<glyph unicode="&#xac;" horiz-adv-x="400" d="M37 249Q33 260 33 271Q33 280 38 286T50 293H356V249H37ZM334 107Q325 107 319 112T312 125V293H356V111Q344 107 334 107Z" />
<glyph unicode="&#xad;" horiz-adv-x="294" d="M45 261Q45 286 47 294T58 303H249Q249 279 248 270T237 261H45Z" />
<glyph unicode="&#xae;" horiz-adv-x="462" d="M231 321Q186 321 151 330T91 363T53 430T40 540Q40 656 93 708T237 761Q298 761 339 741T402 673T423 540Q423 433 373 377T231 321ZM170 410V674Q170 674 170 676T176 678H185Q188 678 193 676T199 674V418Q199
411 192 411T170 410ZM287 410Q280 456 267 481T244 517T233 528Q233 528 232 530T234 533L244 538Q246 538 252 539T259 540Q259 540 271 527T298 487T317 418Q317 415 316 413T307 410Q305 410 298 410T287 410ZM226 357Q274 357 310 377T366 439T386 543Q386
612 369 651T318 708T238 725Q166 725 122 683T77 536Q77 467 94 428T145 373T226 357ZM224 550Q253 550 267 565T281 606Q281 626 270 639T226 652Q208 652 200 652T191 652V551Q191 551 199 551T216 551T224 550ZM181 524Q174 524 174 526T175 531V671Q175 674
175 676T178 678H227Q273 678 292 657T311 606Q311 566 288 545T225 524H181Z" />
<glyph unicode="&#xaf;" horiz-adv-x="257" d="M5 610Q4 616 4 621T3 631Q4 642 8 648T22 654H251Q253 648 253 643T254 633Q254 622 250 616T236 610H5Z" />
<glyph unicode="&#xb0;" horiz-adv-x="376" d="M187 565Q148 565 125 582T102 653Q102 699 126 720T193 742Q235 742 256 723T277 654Q277 611 254 588T187 565ZM187 600Q213 600 227 613T242 654Q242 685 230 696T194 708Q167 708 152 696T137 651Q137 623 150
612T187 600Z" />
<glyph unicode="&#xb1;" horiz-adv-x="439" d="M45 277Q45 302 46 310T57 319H395Q395 295 394 286T382 277H45ZM199 123V461Q199 470 208 471T241 473V135Q241 126 233 125T199 123ZM45 12Q45 37 46 45T57 54H395Q395 30 394 21T382 12H45Z" />
<glyph unicode="&#xb2;" horiz-adv-x="408" d="M59 289Q58 294 57 298T56 307Q56 315 58 322T65 335Q99 372 137 404T208 467T261 528T282 592Q282 611 276 627T252 654T199 665Q156 665 128 649T80 617Q73 626 71 632T69 646Q69 657 90 672T144 698T214 710Q263
710 288 696T324 656T334 601Q334 562 313 528T258 461T189 397T121 332H348Q352 321 352 312Q352 289 336 289H59Z" />
<glyph unicode="&#xb3;" horiz-adv-x="425" d="M186 279Q143 279 114 288T73 309Q67 315 67 325Q67 340 80 351Q99 337 123 330T189 322Q244 322 278 346T312 412Q312 442 292 461T240 486Q222 488 199 489T154 490Q152 492 151 499T149 511Q149 517 152 522T165
528Q191 528 217 526T259 521Q304 513 331 485T358 417Q358 371 337 341T277 295T186 279ZM268 506L222 516Q262 539 277 561T292 609Q292 622 285 635T260 658T208 668Q169 668 138 657T85 627Q75 636 75 649T82 667Q97 682 131 696T219 710Q265 710 291 697T329
663T341 619Q341 585 322 556T268 506Z" />
<glyph unicode="&#xb4;" horiz-adv-x="259" d="M68 572Q65 572 61 578T53 592T50 599Q72 620 95 641T139 679T173 706T187 716Q196 716 202 701T209 679Q207 676 193 665T159 638T115 605T68 572Z" />
<glyph unicode="&#xb5;" horiz-adv-x="428" d="M82 -194Q77 -194 72 -194T62 -191V485Q62 495 67 499T85 504Q90 504 96 504T108 501V129Q108 77 136 55T211 33Q245 33 271 39T318 55V484Q318 494 322 499T341 504Q345 504 351 504T363 501V23Q334 10 293 0T211
-10Q138 -10 108 30V-177Q108 -188 100 -191T82 -194Z" />
<glyph unicode="&#xb6;" horiz-adv-x="548" d="M336 -3Q329 -3 324 -2T314 0V208Q297 199 270 194T221 189Q188 189 157 200T101 237T61 308T46 423Q46 517 70 580T138 676T245 709Q284 709 310 702T359 683V14Q359 3 353 0T336 -3ZM230 229Q246 228 271 233T314
248V654Q306 659 287 664T239 669Q169 669 131 607T92 426Q92 347 113 304T165 246T230 229ZM461 -2Q458 -2 452 -1T439 1V671Q439 681 444 685T462 689Q467 689 472 689T484 686V14Q484 5 480 2T461 -2Z" />
<glyph unicode="&#xb7;" horiz-adv-x="204" d="M98 229Q79 229 70 240T61 270Q61 286 70 298T98 310Q118 310 127 299T137 270Q137 253 127 241T98 229Z" />
<glyph unicode="&#xb8;" horiz-adv-x="257" d="M128 -188Q108 -188 92 -184T76 -179Q76 -179 77 -173T80 -160T86 -150Q91 -145 102 -151T129 -157Q143 -157 153 -149T164 -121Q164 -99 154 -93T130 -86Q115 -86 104 -88T92 -91L111 3H144L130 -60Q130 -60 133
-60T149 -59Q166 -59 181 -71T197 -114Q197 -142 187 -158T161 -181T128 -188Z" />
<glyph unicode="&#xb9;" horiz-adv-x="417" d="M70 289Q68 294 68 299T67 308Q67 320 70 326T83 332H204V660L75 633Q73 637 72 642T70 654Q70 663 74 668T87 677Q110 683 141 691T199 704T232 710Q235 710 240 710T249 708V332H348Q350 326 350 321T350 312Q350
300 347 295T336 289H70Z" />
<glyph unicode="&#xba;" horiz-adv-x="352" d="M172 290Q134 290 105 306T61 367T45 498Q45 611 83 660T182 710Q224 710 251 692T293 629T307 499Q307 393 272 342T172 290ZM172 330Q217 330 242 371T268 501Q268 568 258 604T229 654T183 668Q138 668 112 630T85
493Q85 428 95 393T125 344T172 330Z" />
<glyph unicode="&#xbb;" horiz-adv-x="415" d="M228 0Q228 0 224 1T215 5T205 14T201 28Q201 33 211 51T236 95T270 148T303 200T329 240T339 255Q339 255 329 269T304 307T272 358T240 410T215 453T205 477Q205 483 209 487T219 495T229 499T233 500Q233 500
244 484T272 442T308 387T344 329T372 281T383 255Q383 250 372 229T343 178T306 118T268 61T239 17T228 0ZM72 21Q72 21 66 23T53 32T47 49Q47 54 60 76T94 127T135 185T169 231T183 250Q183 250 170 268T138 316T98 374T65 427T51 457Q51 466 57 471T70 478T77
480Q77 480 88 465T116 426T152 374T188 320T216 275T227 250Q227 244 216 225T187 180T149 126T112 75T83 36T72 21Z" />
<glyph unicode="&#xbc;" horiz-adv-x="998" d="M62 289Q60 294 60 299T59 308Q59 320 62 326T76 332H196V660L68 633Q65 637 64 642T62 654Q62 663 66 668T79 677Q103 683 134 691T192 704T225 710Q228 710 233 710T241 708V332H341Q342 326 342 321T343 312Q343
300 340 295T328 289H62ZM316 -9Q308 -9 299 -4T286 10L708 700Q710 704 713 707T723 710Q730 710 738 706T752 691L329 -2Q328 -4 325 -6T316 -9ZM863 -5Q854 -5 845 -3V76H653Q649 80 648 85T646 96Q646 103 654 126Q664 158 684 196T729 273T782 348T835 406Q843
416 851 418T870 421Q875 421 880 420T888 418V119H963Q964 115 965 110T966 97Q966 89 963 83T953 76H888V12Q888 -5 863 -5ZM694 117H846L848 361Q829 344 807 317T762 256T722 187T694 117Z" />
<glyph unicode="&#xbd;" horiz-adv-x="990" d="M62 289Q60 294 60 299T59 308Q59 320 62 326T76 332H196V660L68 633Q65 637 64 642T62 654Q62 663 66 668T79 677Q103 683 134 691T192 704T225 710Q228 710 233 710T241 708V332H341Q342 326 342 321T343 312Q343
300 340 295T328 289H62ZM316 -9Q308 -9 299 -4T286 10L708 700Q710 704 713 707T723 710Q730 710 738 706T752 691L329 -2Q328 -4 325 -6T316 -9ZM650 0Q648 5 647 9T646 18Q646 26 648 33T655 46Q690 83 727 115T798 178T852 239T873 303Q873 322 867 338T843
365T790 376Q746 376 719 360T671 328Q664 337 662 343T660 357Q660 368 680 383T734 409T804 421Q853 421 879 407T914 367T924 312Q924 273 903 239T849 172T779 108T711 43H939Q942 32 942 23Q942 0 926 0H650Z" />
<glyph unicode="&#xbe;" horiz-adv-x="1005" d="M178 279Q135 279 106 288T66 309Q59 315 59 325Q59 340 73 351Q91 337 115 330T181 322Q237 322 270 346T304 412Q304 442 284 461T232 486Q215 488 191 489T146 490Q145 492 143 499T141 511Q141 517 145 522T158
528Q184 528 210 526T251 521Q297 513 323 485T350 417Q350 371 329 341T269 295T178 279ZM261 506L214 516Q254 539 269 561T285 609Q285 622 278 635T252 658T200 668Q161 668 130 657T77 627Q67 636 67 649T74 667Q89 682 124 696T212 710Q258 710 284 697T322
663T333 619Q333 585 315 556T261 506ZM324 -9Q316 -9 307 -4T294 10L716 700Q718 704 721 707T731 710Q738 710 746 706T760 691L337 -2Q336 -4 333 -6T324 -9ZM870 -5Q861 -5 852 -3V76H660Q656 80 655 85T653 96Q653 103 661 126Q671 158 691 196T736 273T789
348T842 406Q850 416 858 418T877 421Q882 421 887 420T895 418V119H970Q971 115 972 110T973 97Q973 89 970 83T960 76H895V12Q895 -5 870 -5ZM701 117H853L855 361Q836 344 814 317T769 256T729 187T701 117Z" />
<glyph unicode="&#xbf;" horiz-adv-x="300" d="M154 -194Q128 -194 103 -188T58 -165T26 -122T14 -52Q14 -9 27 25T61 88T101 141T133 188Q153 221 154 249T151 296T149 318Q152 322 159 323T174 324T190 322Q190 322 194 310T199 278T197 230T175 173Q160 147
141 123T104 73T73 19T61 -46Q61 -81 72 -102T99 -133T133 -146T164 -149Q196 -149 221 -141T265 -118Q267 -124 268 -132T270 -154Q270 -161 254 -171T211 -187T154 -194ZM168 426Q148 426 139 437T129 466Q129 484 139 495T168 507Q187 507 196 496T205 466Q205
450 196 438T168 426Z" />
<glyph unicode="&#xc0;" horiz-adv-x="436" d="M36 -1Q32 -1 25 -1T8 0L200 698Q201 704 215 704Q220 704 225 704T234 702L427 12Q429 5 426 2T409 -1Q404 -1 397 -1T381 0L263 442Q252 484 243 523T226 593T218 639Q216 624 210 593T194 523T172 442L59 9Q57
3 53 1T36 -1ZM98 199V242H352V199H98ZM282 769Q260 785 236 802T192 836T157 863T141 876Q142 883 148 898T163 913Q164 913 177 903T210 877T254 839T300 796Q300 796 297 790T290 776T282 769Z" />
<glyph unicode="&#xc1;" horiz-adv-x="436" d="M36 -1Q32 -1 25 -1T8 0L200 698Q201 704 215 704Q220 704 225 704T234 702L427 12Q429 5 426 2T409 -1Q404 -1 397 -1T381 0L263 442Q252 484 243 523T226 593T218 639Q216 624 210 593T194 523T172 442L59 9Q57
3 53 1T36 -1ZM98 199V242H352V199H98ZM159 772Q156 772 152 778T144 792T141 799Q163 820 186 841T230 879T264 906T278 916Q287 916 293 901T300 879Q298 876 284 865T250 838T206 805T159 772Z" />
<glyph unicode="&#xc2;" horiz-adv-x="436" d="M36 -1Q32 -1 25 -1T8 0L200 698Q201 704 215 704Q220 704 225 704T234 702L427 12Q429 5 426 2T409 -1Q404 -1 397 -1T381 0L263 442Q252 484 243 523T226 593T218 639Q216 624 210 593T194 523T172 442L59 9Q57
3 53 1T36 -1ZM98 199V242H352V199H98ZM302 773Q302 773 291 785T264 813T237 844T222 861Q222 861 210 848T182 818T151 787T132 774Q119 774 111 780T100 791L211 901Q216 903 223 903Q227 903 231 902T241 895Q241 895 255 880T289 846T322 810T337 791Q337
788 327 781T302 773Z" />
<glyph unicode="&#xc3;" horiz-adv-x="436" d="M36 -1Q32 -1 25 -1T8 0L200 698Q201 704 215 704Q220 704 225 704T234 702L427 12Q429 5 426 2T409 -1Q404 -1 397 -1T381 0L263 442Q252 484 243 523T226 593T218 639Q216 624 210 593T194 523T172 442L59 9Q57
3 53 1T36 -1ZM98 199V242H352V199H98ZM263 782Q241 782 228 790T206 809T189 828T167 837Q147 837 135 826T115 802T102 789Q96 789 90 795T81 807T77 813Q101 853 125 866T176 879Q193 879 204 871T223 853T241 835T268 827Q295 827 308 838T328 862T340 874Q346
874 350 868T357 854T360 847Q356 840 349 829T330 807T302 789T263 782Z" />
<glyph unicode="&#xc4;" horiz-adv-x="436" d="M36 -1Q32 -1 25 -1T8 0L200 698Q201 704 215 704Q220 704 225 704T234 702L427 12Q429 5 426 2T409 -1Q404 -1 397 -1T381 0L263 442Q252 484 243 523T226 593T218 639Q216 624 210 593T194 523T172 442L59 9Q57
3 53 1T36 -1ZM98 199V242H352V199H98ZM164 798Q150 799 144 808T138 838Q139 857 146 867T167 877Q181 877 187 868T193 838Q192 819 186 809T164 798ZM271 798Q257 799 251 808T245 838Q246 857 253 867T274 877Q288 877 294 868T300 838Q299 819 293 809T271
798Z" />
<glyph unicode="&#xc5;" horiz-adv-x="436" d="M36 -1Q32 -1 25 -1T8 0L200 698Q201 704 215 704Q220 704 225 704T234 702L427 12Q429 5 426 2T409 -1Q404 -1 397 -1T381 0L263 442Q252 484 243 523T226 593T218 639Q216 624 210 593T194 523T172 442L59 9Q57
3 53 1T36 -1ZM98 199V242H352V199H98ZM216 758Q177 758 154 777T131 846Q131 892 156 913T223 935Q265 935 285 916T306 846Q306 803 283 781T216 758ZM216 793Q241 793 255 806T270 847Q270 877 258 888T223 899Q197 899 183 887T168 844Q168 820 180 807T216
793Z" />
<glyph unicode="&#xc6;" horiz-adv-x="653" d="M46 -1Q43 -1 35 -1T18 0L359 691Q361 695 365 697T374 700H392Q388 687 377 658T349 591T316 512T282 438L69 9Q66 4 62 2T46 -1ZM140 199L157 242H387V199H140ZM371 0V688Q371 688 372 694T383 700H622Q622 682
622 673T620 661T613 658H416V42H622Q622 23 622 14T619 3T611 0H371ZM385 361V404H601Q601 378 600 370T590 361H385Z" />
<glyph unicode="&#xc7;" horiz-adv-x="358" d="M207 -9Q184 -9 161 -5T117 17T78 69T51 163T41 315Q41 422 52 493T83 608T128 673T180 702T234 709Q266 709 286 701T317 682T327 660Q327 652 325 644T318 632Q314 636 303 643T276 658T239 665Q217 665 196 659T155
632T121 574T98 472T89 313Q89 224 99 170T128 87T168 50T214 40Q250 40 280 56T323 89Q326 83 329 76T332 59Q332 46 316 30T271 2T207 -9ZM214 -188Q194 -188 178 -184T162 -179Q162 -179 163 -173T166 -160T172 -150Q177 -145 188 -151T215 -157Q229 -157 239
-149T250 -121Q250 -99 240 -93T216 -86Q201 -86 190 -88T178 -91L197 3H230L216 -60Q216 -60 219 -60T235 -59Q252 -59 267 -71T283 -114Q283 -142 273 -158T247 -181T214 -188Z" />
<glyph unicode="&#xc8;" horiz-adv-x="343" d="M61 0V688Q61 688 63 694T74 700H313Q313 682 313 673T310 661T303 658H106V42H313Q313 23 312 14T309 3T302 0H61ZM75 361V404H291Q291 378 290 370T281 361H75ZM251 769Q229 785 205 802T161 836T126 863T110 876Q111
883 117 898T132 913Q133 913 146 903T179 877T223 839T269 796Q269 796 266 790T259 776T251 769Z" />
<glyph unicode="&#xc9;" horiz-adv-x="343" d="M61 0V688Q61 688 63 694T74 700H313Q313 682 313 673T310 661T303 658H106V42H313Q313 23 312 14T309 3T302 0H61ZM75 361V404H291Q291 378 290 370T281 361H75ZM128 772Q125 772 121 778T113 792T110 799Q132 820
155 841T199 879T233 906T247 916Q256 916 262 901T269 879Q267 876 253 865T219 838T175 805T128 772Z" />
<glyph unicode="&#xca;" horiz-adv-x="343" d="M61 0V688Q61 688 63 694T74 700H313Q313 682 313 673T310 661T303 658H106V42H313Q313 23 312 14T309 3T302 0H61ZM75 361V404H291Q291 378 290 370T281 361H75ZM270 773Q270 773 259 785T232 813T205 844T190 861Q190
861 178 848T150 818T119 787T100 774Q87 774 79 780T68 791L179 901Q184 903 191 903Q195 903 199 902T209 895Q209 895 223 880T257 846T290 810T305 791Q305 788 295 781T270 773Z" />
<glyph unicode="&#xcb;" horiz-adv-x="343" d="M61 0V688Q61 688 63 694T74 700H313Q313 682 313 673T310 661T303 658H106V42H313Q313 23 312 14T309 3T302 0H61ZM75 361V404H291Q291 378 290 370T281 361H75ZM132 798Q118 799 112 808T106 838Q107 857 114 867T135
877Q149 877 155 868T161 838Q160 819 154 809T132 798ZM239 798Q225 799 219 808T213 838Q214 857 221 867T242 877Q256 877 262 868T268 838Q267 819 261 809T239 798Z" />
<glyph unicode="&#xcc;" horiz-adv-x="164" d="M59 0V676Q59 688 61 693T73 699T105 700V12Q105 6 103 4T92 1T59 0ZM146 769Q124 785 100 802T56 836T21 863T5 876Q6 883 12 898T27 913Q28 913 41 903T74 877T118 839T164 796Q164 796 161 790T154 776T146 769Z" />
<glyph unicode="&#xcd;" horiz-adv-x="164" d="M59 0V676Q59 688 61 693T73 699T105 700V12Q105 6 103 4T92 1T59 0ZM23 772Q20 772 16 778T8 792T5 799Q27 820 50 841T94 879T128 906T142 916Q151 916 157 901T164 879Q162 876 148 865T114 838T70 805T23 772Z" />
<glyph unicode="&#xce;" horiz-adv-x="164" d="M59 0V676Q59 688 61 693T73 699T105 700V12Q105 6 103 4T92 1T59 0ZM166 773Q166 773 155 785T128 813T101 844T86 861Q86 861 74 848T46 818T15 787T-4 774Q-17 774 -25 780T-36 791L75 901Q80 903 87 903Q91 903
95 902T105 895Q105 895 119 880T153 846T186 810T201 791Q201 788 191 781T166 773Z" />
<glyph unicode="&#xcf;" horiz-adv-x="164" d="M59 0V676Q59 688 61 693T73 699T105 700V12Q105 6 103 4T92 1T59 0ZM28 798Q14 799 8 808T2 838Q3 857 10 867T31 877Q45 877 51 868T57 838Q56 819 50 809T28 798ZM135 798Q121 799 115 808T109 838Q110 857 117
867T138 877Q152 877 158 868T164 838Q163 819 157 809T135 798Z" />
<glyph unicode="&#xd0;" horiz-adv-x="419" d="M60 0V683Q60 691 65 695T85 700H185Q233 700 269 683T330 630T367 534T380 390Q380 268 365 192T321 74T257 16T180 0H60ZM14 348Q14 373 16 381T27 390H219Q219 367 218 358T206 348H14ZM105 44H180Q209 44 236
55T284 103T318 207T331 390Q331 462 322 513T295 596T249 642T183 657H105V44Z" />
<glyph unicode="&#xd1;" horiz-adv-x="460" d="M359 0L234 283Q232 289 221 317T192 386T157 471T123 554T97 617T87 641L65 672L71 700H102L224 422Q226 416 237 388T265 320T300 237T333 156T359 95T369 71L396 28L389 0H359ZM59 0V688Q59 700 71 700L104 688L100
631Q101 626 101 598T102 530T103 444T103 358T104 290T104 258V12Q104 6 102 4T91 1T59 0ZM389 0L357 12L360 79Q359 84 359 112T358 180T358 265T357 350T357 418T357 449V688Q357 694 358 696T369 699T402 700V12Q402 0 389 0ZM275 782Q253 782 240 790T218
809T201 828T179 837Q159 837 147 826T127 802T114 789Q108 789 102 795T93 807T89 813Q113 853 137 866T188 879Q205 879 216 871T235 853T253 835T280 827Q307 827 320 838T340 862T352 874Q358 874 362 868T369 854T372 847Q368 840 361 829T342 807T314 789T275
782Z" />
<glyph unicode="&#xd2;" horiz-adv-x="452" d="M223 -10Q175 -10 141 8T84 67T52 179T41 355Q41 484 62 562T126 675T234 710Q282 710 316 692T371 632T401 523T411 356Q411 222 392 142T331 26T223 -10ZM224 36Q274 36 304 67T348 168T363 357Q363 472 350 539T309
635T233 664Q184 664 153 633T106 531T90 340Q90 229 103 163T146 66T224 36ZM290 769Q268 785 244 802T200 836T165 863T149 876Q150 883 156 898T171 913Q172 913 185 903T218 877T262 839T308 796Q308 796 305 790T298 776T290 769Z" />
<glyph unicode="&#xd3;" horiz-adv-x="452" d="M223 -10Q175 -10 141 8T84 67T52 179T41 355Q41 484 62 562T126 675T234 710Q282 710 316 692T371 632T401 523T411 356Q411 222 392 142T331 26T223 -10ZM224 36Q274 36 304 67T348 168T363 357Q363 472 350 539T309
635T233 664Q184 664 153 633T106 531T90 340Q90 229 103 163T146 66T224 36ZM167 772Q164 772 160 778T152 792T149 799Q171 820 194 841T238 879T272 906T286 916Q295 916 301 901T308 879Q306 876 292 865T258 838T214 805T167 772Z" />
<glyph unicode="&#xd4;" horiz-adv-x="452" d="M223 -10Q175 -10 141 8T84 67T52 179T41 355Q41 484 62 562T126 675T234 710Q282 710 316 692T371 632T401 523T411 356Q411 222 392 142T331 26T223 -10ZM224 36Q274 36 304 67T348 168T363 357Q363 472 350 539T309
635T233 664Q184 664 153 633T106 531T90 340Q90 229 103 163T146 66T224 36ZM310 773Q310 773 299 785T272 813T245 844T230 861Q230 861 218 848T190 818T159 787T140 774Q127 774 119 780T108 791L219 901Q224 903 231 903Q235 903 239 902T249 895Q249 895
263 880T297 846T330 810T345 791Q345 788 335 781T310 773Z" />
<glyph unicode="&#xd5;" horiz-adv-x="452" d="M223 -10Q175 -10 141 8T84 67T52 179T41 355Q41 484 62 562T126 675T234 710Q282 710 316 692T371 632T401 523T411 356Q411 222 392 142T331 26T223 -10ZM224 36Q274 36 304 67T348 168T363 357Q363 472 350 539T309
635T233 664Q184 664 153 633T106 531T90 340Q90 229 103 163T146 66T224 36ZM271 782Q249 782 236 790T214 809T197 828T175 837Q155 837 143 826T123 802T110 789Q104 789 98 795T89 807T85 813Q109 853 133 866T184 879Q201 879 212 871T231 853T249 835T276
827Q303 827 316 838T336 862T348 874Q354 874 358 868T365 854T368 847Q364 840 357 829T338 807T310 789T271 782Z" />
<glyph unicode="&#xd6;" horiz-adv-x="452" d="M223 -10Q175 -10 141 8T84 67T52 179T41 355Q41 484 62 562T126 675T234 710Q282 710 316 692T371 632T401 523T411 356Q411 222 392 142T331 26T223 -10ZM224 36Q274 36 304 67T348 168T363 357Q363 472 350 539T309
635T233 664Q184 664 153 633T106 531T90 340Q90 229 103 163T146 66T224 36ZM172 798Q158 799 152 808T146 838Q147 857 154 867T175 877Q189 877 195 868T201 838Q200 819 194 809T172 798ZM279 798Q265 799 259 808T253 838Q254 857 261 867T282 877Q296 877
302 868T308 838Q307 819 301 809T279 798Z" />
<glyph unicode="&#xd7;" horiz-adv-x="438" d="M304 152L93 391Q111 408 118 413T132 412L343 173Q326 156 319 151T304 152ZM132 152Q126 146 119 151T94 173L305 412Q311 418 318 413T343 391L132 152Z" />
<glyph unicode="&#xd8;" horiz-adv-x="455" d="M233 710Q298 710 337 677T394 566T412 356Q412 222 393 142T332 26T224 -10Q176 -10 142 8T86 67T53 179T43 355Q43 484 63 562T125 675T233 710ZM233 664Q185 664 154 633T107 531T91 340Q91 229 104 163T146 66T222
36Q258 36 285 51T330 103T356 202T365 357Q365 472 352 539T310 635T233 664ZM88 83Q88 83 95 82T109 77T117 66Q118 65 114 53T102 25T91 -3T85 -17Q81 -17 69 -14T55 -1Q54 0 59 12T71 41T83 70T88 83ZM103 71L326 651Q326 651 332 650T345 646T354 635Q354
634 342 602T310 519T267 406T220 283T176 170T144 88T132 56Q132 56 125 57T111 61T103 71ZM367 612Q367 612 362 612T351 615T340 620T333 629Q333 629 336 637T344 659T354 685T363 707T368 719Q368 719 375 718T390 714T399 704Q399 702 396 693T388 670T378
643T370 621T367 612Z" />
<glyph unicode="&#xd9;" horiz-adv-x="467" d="M240 -10Q178 -10 142 8T88 59T65 132T59 219V687Q59 694 61 696T72 699T105 700V218Q105 181 109 148T127 88T168 48T240 33Q277 33 311 40T362 56V688Q362 695 364 697T376 699T408 700V24Q388 11 341 1T240 -10ZM297
769Q275 785 251 802T207 836T172 863T156 876Q157 883 163 898T178 913Q179 913 192 903T225 877T269 839T315 796Q315 796 312 790T305 776T297 769Z" />
<glyph unicode="&#xda;" horiz-adv-x="467" d="M240 -10Q178 -10 142 8T88 59T65 132T59 219V687Q59 694 61 696T72 699T105 700V218Q105 181 109 148T127 88T168 48T240 33Q277 33 311 40T362 56V688Q362 695 364 697T376 699T408 700V24Q388 11 341 1T240 -10ZM174
772Q171 772 167 778T159 792T156 799Q178 820 201 841T245 879T279 906T293 916Q302 916 308 901T315 879Q313 876 299 865T265 838T221 805T174 772Z" />
<glyph unicode="&#xdb;" horiz-adv-x="467" d="M240 -10Q178 -10 142 8T88 59T65 132T59 219V687Q59 694 61 696T72 699T105 700V218Q105 181 109 148T127 88T168 48T240 33Q277 33 311 40T362 56V688Q362 695 364 697T376 699T408 700V24Q388 11 341 1T240 -10ZM317
773Q317 773 306 785T279 813T252 844T237 861Q237 861 225 848T197 818T166 787T147 774Q134 774 126 780T115 791L226 901Q231 903 238 903Q242 903 246 902T256 895Q256 895 270 880T304 846T337 810T352 791Q352 788 342 781T317 773Z" />
<glyph unicode="&#xdc;" horiz-adv-x="467" d="M240 -10Q178 -10 142 8T88 59T65 132T59 219V687Q59 694 61 696T72 699T105 700V218Q105 181 109 148T127 88T168 48T240 33Q277 33 311 40T362 56V688Q362 695 364 697T376 699T408 700V24Q388 11 341 1T240 -10ZM179
798Q165 799 159 808T153 838Q154 857 161 867T182 877Q196 877 202 868T208 838Q207 819 201 809T179 798ZM286 798Q272 799 266 808T260 838Q261 857 268 867T289 877Q303 877 309 868T315 838Q314 819 308 809T286 798Z" />
<glyph unicode="&#xdd;" horiz-adv-x="360" d="M193 254L171 255L6 692Q5 697 6 698T19 700T56 700L108 555Q120 524 133 487T157 414T175 355T183 327Q183 331 190 355T209 414T233 487T257 556L305 691Q306 696 309 698T322 700T355 700L193 254ZM159 0V316H204V12Q204
6 203 4T192 1T159 0ZM121 772Q118 772 114 778T106 792T103 799Q125 820 148 841T192 879T226 906T240 916Q249 916 255 901T262 879Q260 876 246 865T212 838T168 805T121 772Z" />
<glyph unicode="&#xde;" horiz-adv-x="373" d="M59 0V687Q59 696 66 698T90 700H104V562H177Q240 562 277 538T331 471T348 374Q348 319 336 279T301 213T245 175T172 162H104V12Q104 6 102 4T91 1T59 0ZM174 205Q218 205 245 225T286 283T300 377Q300 417 290
449T253 501T179 520Q159 520 141 520T104 519V206Q121 206 138 206T174 205Z" />
<glyph unicode="&#xdf;" horiz-adv-x="472" d="M80 -8Q67 -8 60 -4T53 0Q53 0 57 12T61 46L60 549Q60 634 103 669T216 704Q269 704 306 691T366 656T398 609T408 563Q408 535 395 516T361 483T320 457T286 430T272 393Q272 371 291 352T337 313T392 269T438 213T457
135Q457 64 416 28T305 -9Q249 -9 219 7T188 33Q188 45 193 53T202 65Q217 51 240 42T299 32Q345 32 377 56T409 133Q409 171 390 199T344 249T290 293T243 338T224 391Q224 418 238 437T272 470T313 497T347 525T361 562Q361 584 347 607T302 646T220 662Q161
662 134 631T106 522L107 21Q107 6 102 -1T80 -8Z" />
<glyph unicode="&#xe0;" horiz-adv-x="372" d="M183 -10Q156 -11 131 -7T85 12T52 56T39 138Q39 191 52 223T87 272T137 294T194 300Q216 300 238 298T278 289Q278 289 278 306T278 344T278 380Q278 416 267 434T237 459T193 466Q143 466 104 458T45 441Q42 448
41 454T39 467Q39 473 40 478T46 485Q61 494 105 502T203 510Q262 510 292 484T323 389V327Q323 270 323 216T321 114T317 27Q302 18 270 4T183 -10ZM191 30Q218 30 241 38T273 55Q275 78 276 111T277 182T278 254Q263 259 243 261T206 264Q183 264 162 260T123
244T96 206T85 139Q85 101 93 79T117 47T151 33T191 30ZM245 569Q223 585 199 602T155 636T120 663T104 676Q105 683 111 698T126 713Q127 713 140 703T173 677T217 639T263 596Q263 596 260 590T253 576T245 569Z" />
<glyph unicode="&#xe1;" horiz-adv-x="372" d="M183 -10Q156 -11 131 -7T85 12T52 56T39 138Q39 191 52 223T87 272T137 294T194 300Q216 300 238 298T278 289Q278 289 278 306T278 344T278 380Q278 416 267 434T237 459T193 466Q143 466 104 458T45 441Q42 448
41 454T39 467Q39 473 40 478T46 485Q61 494 105 502T203 510Q262 510 292 484T323 389V327Q323 270 323 216T321 114T317 27Q302 18 270 4T183 -10ZM191 30Q218 30 241 38T273 55Q275 78 276 111T277 182T278 254Q263 259 243 261T206 264Q183 264 162 260T123
244T96 206T85 139Q85 101 93 79T117 47T151 33T191 30ZM122 572Q119 572 115 578T107 592T104 599Q126 620 149 641T193 679T227 706T241 716Q250 716 256 701T263 679Q261 676 247 665T213 638T169 605T122 572Z" />
<glyph unicode="&#xe2;" horiz-adv-x="372" d="M183 -10Q156 -11 131 -7T85 12T52 56T39 138Q39 191 52 223T87 272T137 294T194 300Q216 300 238 298T278 289Q278 289 278 306T278 344T278 380Q278 416 267 434T237 459T193 466Q143 466 104 458T45 441Q42 448
41 454T39 467Q39 473 40 478T46 485Q61 494 105 502T203 510Q262 510 292 484T323 389V327Q323 270 323 216T321 114T317 27Q302 18 270 4T183 -10ZM191 30Q218 30 241 38T273 55Q275 78 276 111T277 182T278 254Q263 259 243 261T206 264Q183 264 162 260T123
244T96 206T85 139Q85 101 93 79T117 47T151 33T191 30ZM265 573Q265 573 254 585T227 613T200 644T185 661Q185 661 173 648T145 618T114 587T95 574Q82 574 74 580T63 591L174 701Q179 703 186 703Q190 703 194 702T204 695Q204 695 218 680T252 646T285 610T300
591Q300 588 290 581T265 573Z" />
<glyph unicode="&#xe3;" horiz-adv-x="372" d="M183 -10Q156 -11 131 -7T85 12T52 56T39 138Q39 191 52 223T87 272T137 294T194 300Q216 300 238 298T278 289Q278 289 278 306T278 344T278 380Q278 416 267 434T237 459T193 466Q143 466 104 458T45 441Q42 448
41 454T39 467Q39 473 40 478T46 485Q61 494 105 502T203 510Q262 510 292 484T323 389V327Q323 270 323 216T321 114T317 27Q302 18 270 4T183 -10ZM191 30Q218 30 241 38T273 55Q275 78 276 111T277 182T278 254Q263 259 243 261T206 264Q183 264 162 260T123
244T96 206T85 139Q85 101 93 79T117 47T151 33T191 30ZM226 582Q204 582 191 590T169 609T152 628T130 637Q110 637 98 626T78 602T65 589Q59 589 53 595T44 607T40 613Q64 653 88 666T139 679Q156 679 167 671T186 653T204 635T231 627Q258 627 271 638T291 662T303
674Q309 674 313 668T320 654T323 647Q319 640 312 629T293 607T265 589T226 582Z" />
<glyph unicode="&#xe4;" horiz-adv-x="372" d="M183 -10Q156 -11 131 -7T85 12T52 56T39 138Q39 191 52 223T87 272T137 294T194 300Q216 300 238 298T278 289Q278 289 278 306T278 344T278 380Q278 416 267 434T237 459T193 466Q143 466 104 458T45 441Q42 448
41 454T39 467Q39 473 40 478T46 485Q61 494 105 502T203 510Q262 510 292 484T323 389V327Q323 270 323 216T321 114T317 27Q302 18 270 4T183 -10ZM191 30Q218 30 241 38T273 55Q275 78 276 111T277 182T278 254Q263 259 243 261T206 264Q183 264 162 260T123
244T96 206T85 139Q85 101 93 79T117 47T151 33T191 30ZM127 598Q113 599 107 608T101 638Q102 657 109 667T130 677Q144 677 150 668T156 638Q155 619 149 609T127 598ZM234 598Q220 599 214 608T208 638Q209 657 216 667T237 677Q251 677 257 668T263 638Q262
619 256 609T234 598Z" />
<glyph unicode="&#xe5;" horiz-adv-x="372" d="M183 -10Q156 -11 131 -7T85 12T52 56T39 138Q39 191 52 223T87 272T137 294T194 300Q216 300 238 298T278 289Q278 289 278 306T278 344T278 380Q278 416 267 434T237 459T193 466Q143 466 104 458T45 441Q42 448
41 454T39 467Q39 473 40 478T46 485Q61 494 105 502T203 510Q262 510 292 484T323 389V327Q323 270 323 216T321 114T317 27Q302 18 270 4T183 -10ZM191 30Q218 30 241 38T273 55Q275 78 276 111T277 182T278 254Q263 259 243 261T206 264Q183 264 162 260T123
244T96 206T85 139Q85 101 93 79T117 47T151 33T191 30ZM179 558Q140 558 117 577T94 646Q94 692 119 713T186 735Q228 735 248 716T269 646Q269 603 246 581T179 558ZM179 593Q204 593 218 606T233 647Q233 677 221 688T186 699Q160 699 146 687T131 644Q131 620
143 607T179 593Z" />
<glyph unicode="&#xe6;" horiz-adv-x="635" d="M447 -8Q411 -8 382 -1T331 29T298 99T286 222Q286 322 301 380T341 465T398 501T460 510Q526 510 556 470T586 356Q586 325 584 293T577 236Q530 228 483 229T397 235T335 244T311 249L312 289Q312 289 334 284T392
274T466 268T537 272Q540 291 541 310T542 345Q541 407 524 438T457 469Q436 469 414 462T371 430T339 356T327 221Q327 157 336 120T361 64T400 41T450 36Q486 36 519 45T575 71Q579 63 580 51T581 29Q581 23 563 14T514 -1T447 -8ZM190 30Q217 30 243 37T278
53V259Q262 264 242 266T206 269Q183 269 162 265T123 247T96 208T85 138Q85 88 100 65T139 36T190 30ZM183 -8Q156 -9 131 -6T85 12T52 57T39 140Q39 193 52 225T87 275T136 299T193 305Q216 305 238 303T278 294Q278 294 278 310T278 347T278 382Q278 418 267
436T235 461T187 468Q143 468 107 460T48 439Q45 446 44 453T43 466Q43 472 45 477T52 484Q67 493 104 501T203 510Q261 510 289 484T318 389V22Q303 13 270 3T183 -8Z" />
<glyph unicode="&#xe7;" horiz-adv-x="337" d="M193 -10Q160 -10 133 -1T86 33T54 108T43 239Q43 329 59 383T103 464T162 501T224 510Q257 510 282 499T308 472Q308 467 306 459T301 444Q289 453 269 460T221 468Q200 468 177 461T133 431T101 361T89 236Q89
171 97 131T121 70T157 40T205 31Q238 31 263 42T301 65Q305 57 306 51T308 37Q308 22 276 6T193 -10ZM194 -188Q174 -188 158 -184T142 -179Q142 -179 143 -173T146 -160T152 -150Q157 -145 168 -151T195 -157Q209 -157 219 -149T230 -121Q230 -99 220 -93T196
-86Q181 -86 170 -88T158 -91L177 3H210L196 -60Q196 -60 199 -60T215 -59Q232 -59 247 -71T263 -114Q263 -142 253 -158T227 -181T194 -188Z" />
<glyph unicode="&#xe8;" horiz-adv-x="379" d="M206 -10Q171 -10 141 -2T88 30T53 100T41 222Q41 319 57 377T99 463T157 501T220 510Q286 510 315 468T345 352Q345 322 344 292T337 236Q295 228 249 224T163 219T97 218T71 219V258Q71 258 95 258T154 258T228
262T297 272Q299 291 300 308T301 341Q300 403 283 436T217 469Q195 469 173 462T130 430T99 356T87 221Q87 159 95 122T121 66T161 41T212 34Q247 34 279 43T335 69Q338 61 339 52T341 37Q341 27 322 16T273 -2T206 -10ZM272 569Q250 585 226 602T182 636T147
663T131 676Q132 683 138 698T153 713Q154 713 167 703T200 677T244 639T290 596Q290 596 287 590T280 576T272 569Z" />
<glyph unicode="&#xe9;" horiz-adv-x="379" d="M206 -10Q171 -10 141 -2T88 30T53 100T41 222Q41 319 57 377T99 463T157 501T220 510Q286 510 315 468T345 352Q345 322 344 292T337 236Q295 228 249 224T163 219T97 218T71 219V258Q71 258 95 258T154 258T228
262T297 272Q299 291 300 308T301 341Q300 403 283 436T217 469Q195 469 173 462T130 430T99 356T87 221Q87 159 95 122T121 66T161 41T212 34Q247 34 279 43T335 69Q338 61 339 52T341 37Q341 27 322 16T273 -2T206 -10ZM149 572Q146 572 142 578T134 592T131
599Q153 620 176 641T220 679T254 706T268 716Q277 716 283 701T290 679Q288 676 274 665T240 638T196 605T149 572Z" />
<glyph unicode="&#xea;" horiz-adv-x="379" d="M206 -10Q171 -10 141 -2T88 30T53 100T41 222Q41 319 57 377T99 463T157 501T220 510Q286 510 315 468T345 352Q345 322 344 292T337 236Q295 228 249 224T163 219T97 218T71 219V258Q71 258 95 258T154 258T228
262T297 272Q299 291 300 308T301 341Q300 403 283 436T217 469Q195 469 173 462T130 430T99 356T87 221Q87 159 95 122T121 66T161 41T212 34Q247 34 279 43T335 69Q338 61 339 52T341 37Q341 27 322 16T273 -2T206 -10ZM292 573Q292 573 281 585T254 613T227
644T212 661Q212 661 200 648T172 618T141 587T122 574Q109 574 101 580T90 591L201 701Q206 703 213 703Q217 703 221 702T231 695Q231 695 245 680T279 646T312 610T327 591Q327 588 317 581T292 573Z" />
<glyph unicode="&#xeb;" horiz-adv-x="379" d="M206 -10Q171 -10 141 -2T88 30T53 100T41 222Q41 319 57 377T99 463T157 501T220 510Q286 510 315 468T345 352Q345 322 344 292T337 236Q295 228 249 224T163 219T97 218T71 219V258Q71 258 95 258T154 258T228
262T297 272Q299 291 300 308T301 341Q300 403 283 436T217 469Q195 469 173 462T130 430T99 356T87 221Q87 159 95 122T121 66T161 41T212 34Q247 34 279 43T335 69Q338 61 339 52T341 37Q341 27 322 16T273 -2T206 -10ZM154 598Q140 599 134 608T128 638Q129
657 136 667T157 677Q171 677 177 668T183 638Q182 619 176 609T154 598ZM261 598Q247 599 241 608T235 638Q236 657 243 667T264 677Q278 677 284 668T290 638Q289 619 283 609T261 598Z" />
<glyph unicode="&#xec;" horiz-adv-x="169" d="M62 0V477Q62 489 66 493T80 499T107 500V12Q107 6 106 4T95 1T62 0ZM404 569Q382 585 358 602T314 636T279 663T263 676Q264 683 270 698T285 713Q286 713 299 703T332 677T376 639T422 596Q422 596 419 590T412
576T404 569Z" />
<glyph unicode="&#xed;" horiz-adv-x="169" d="M62 0V477Q62 489 66 493T80 499T107 500V12Q107 6 106 4T95 1T62 0ZM281 572Q278 572 274 578T266 592T263 599Q285 620 308 641T352 679T386 706T400 716Q409 716 415 701T422 679Q420 676 406 665T372 638T328
605T281 572Z" />
<glyph unicode="&#xee;" horiz-adv-x="169" d="M62 0V477Q62 489 66 493T80 499T107 500V12Q107 6 106 4T95 1T62 0ZM424 573Q424 573 413 585T386 613T359 644T344 661Q344 661 332 648T304 618T273 587T254 574Q241 574 233 580T222 591L333 701Q338 703 345
703Q349 703 353 702T363 695Q363 695 377 680T411 646T444 610T459 591Q459 588 449 581T424 573Z" />
<glyph unicode="&#xef;" horiz-adv-x="169" d="M62 0V477Q62 489 66 493T80 499T107 500V12Q107 6 106 4T95 1T62 0ZM286 598Q272 599 266 608T260 638Q261 657 268 667T289 677Q303 677 309 668T315 638Q314 619 308 609T286 598ZM393 598Q379 599 373 608T367
638Q368 657 375 667T396 677Q410 677 416 668T422 638Q421 619 415 609T393 598Z" />
<glyph unicode="&#xf0;" horiz-adv-x="434" d="M222 -10Q162 -10 122 17T62 103T41 256Q41 381 87 444T216 508Q269 508 307 483T365 405L366 348Q343 409 307 438T224 467Q180 467 150 442T103 369T86 251Q86 134 122 82T221 30Q265 30 291 52T330 112T347 197T351
295Q351 368 341 429T306 541T244 637T151 721Q156 732 164 737T182 743Q187 743 192 741T201 736Q302 661 349 554T397 289Q397 230 391 177T366 81T312 14T222 -10ZM153 594Q144 616 142 625T149 638L341 714Q350 691 351 683T345 670L153 594Z" />
<glyph unicode="&#xf1;" horiz-adv-x="407" d="M59 0V475Q83 485 109 493T164 505T221 510Q276 510 305 495T346 449T358 371V12Q358 6 356 4T345 1T312 0V360Q312 416 295 442T221 469Q197 469 163 463T104 444V12Q104 6 102 4T91 1T59 0ZM248 582Q226 582 213
590T191 609T174 628T152 637Q132 637 120 626T100 602T87 589Q81 589 75 595T66 607T62 613Q86 653 110 666T161 679Q178 679 189 671T208 653T226 635T253 627Q280 627 293 638T313 662T325 674Q331 674 335 668T342 654T345 647Q341 640 334 629T315 607T287
589T248 582Z" />
<glyph unicode="&#xf2;" horiz-adv-x="392" d="M191 -10Q156 -10 127 -1T78 34T46 112T35 249Q35 388 80 449T202 510Q254 510 288 488T339 409T356 250Q356 116 314 53T191 -10ZM192 30Q228 30 254 53T294 124T309 252Q309 341 296 388T259 452T200 470Q165 470
139 449T98 379T83 244Q83 178 90 136T111 71T146 39T192 30ZM264 569Q242 585 218 602T174 636T139 663T123 676Q124 683 130 698T145 713Q146 713 159 703T192 677T236 639T282 596Q282 596 279 590T272 576T264 569Z" />
<glyph unicode="&#xf3;" horiz-adv-x="392" d="M191 -10Q156 -10 127 -1T78 34T46 112T35 249Q35 388 80 449T202 510Q254 510 288 488T339 409T356 250Q356 116 314 53T191 -10ZM192 30Q228 30 254 53T294 124T309 252Q309 341 296 388T259 452T200 470Q165 470
139 449T98 379T83 244Q83 178 90 136T111 71T146 39T192 30ZM141 572Q138 572 134 578T126 592T123 599Q145 620 168 641T212 679T246 706T260 716Q269 716 275 701T282 679Q280 676 266 665T232 638T188 605T141 572Z" />
<glyph unicode="&#xf4;" horiz-adv-x="392" d="M191 -10Q156 -10 127 -1T78 34T46 112T35 249Q35 388 80 449T202 510Q254 510 288 488T339 409T356 250Q356 116 314 53T191 -10ZM192 30Q228 30 254 53T294 124T309 252Q309 341 296 388T259 452T200 470Q165 470
139 449T98 379T83 244Q83 178 90 136T111 71T146 39T192 30ZM283 573Q283 573 272 585T245 613T218 644T203 661Q203 661 191 648T163 618T132 587T113 574Q100 574 92 580T81 591L192 701Q197 703 204 703Q208 703 212 702T222 695Q222 695 236 680T270 646T303
610T318 591Q318 588 308 581T283 573Z" />
<glyph unicode="&#xf5;" horiz-adv-x="392" d="M191 -10Q156 -10 127 -1T78 34T46 112T35 249Q35 388 80 449T202 510Q254 510 288 488T339 409T356 250Q356 116 314 53T191 -10ZM192 30Q228 30 254 53T294 124T309 252Q309 341 296 388T259 452T200 470Q165 470
139 449T98 379T83 244Q83 178 90 136T111 71T146 39T192 30ZM244 582Q222 582 209 590T187 609T170 628T148 637Q128 637 116 626T96 602T83 589Q77 589 71 595T62 607T58 613Q82 653 106 666T157 679Q174 679 185 671T204 653T222 635T249 627Q276 627 289 638T309
662T321 674Q327 674 331 668T338 654T341 647Q337 640 330 629T311 607T283 589T244 582Z" />
<glyph unicode="&#xf6;" horiz-adv-x="392" d="M191 -10Q156 -10 127 -1T78 34T46 112T35 249Q35 388 80 449T202 510Q254 510 288 488T339 409T356 250Q356 116 314 53T191 -10ZM192 30Q228 30 254 53T294 124T309 252Q309 341 296 388T259 452T200 470Q165 470
139 449T98 379T83 244Q83 178 90 136T111 71T146 39T192 30ZM145 598Q131 599 125 608T119 638Q120 657 127 667T148 677Q162 677 168 668T174 638Q173 619 167 609T145 598ZM252 598Q238 599 232 608T226 638Q227 657 234 667T255 677Q269 677 275 668T281 638Q280
619 274 609T252 598Z" />
<glyph unicode="&#xf7;" horiz-adv-x="438" d="M45 261Q45 286 46 294T57 303H395Q395 279 394 270T382 261H45ZM216 105Q198 105 190 116T181 144Q181 159 190 170T216 182Q234 182 243 171T253 144Q253 128 243 117T216 105ZM216 376Q198 376 190 387T181 414Q181
430 190 441T216 452Q234 452 243 441T253 414Q253 399 243 388T216 376Z" />
<glyph unicode="&#xf8;" horiz-adv-x="428" d="M220 -10Q182 -10 152 -1T102 34T70 112T59 249Q59 388 103 449T224 510Q276 510 310 488T362 409T380 250Q380 116 338 53T220 -10ZM60 -21Q50 -20 42 -15T33 0Q33 1 40 14T58 44T76 74T84 87Q84 87 91 85T104 77T110
66Q110 64 103 51T86 22T69 -7T60 -21ZM216 30Q252 30 278 53T318 124T332 252Q332 341 319 387T282 451T224 469Q188 469 162 449T121 379T106 244Q106 178 113 136T134 71T169 39T216 30ZM122 65Q120 66 114 68T103 73T97 84L311 440Q311 440 317 439T330 434T336
423Q336 422 325 403T294 351T252 282T207 206T165 136T134 85T122 65ZM346 408Q346 408 342 409T331 414T321 421T316 431Q316 431 321 439T334 461T350 488T365 511T372 522Q372 522 379 520T393 514T400 502Q400 500 395 491T381 467T365 440T352 417T346 408Z"
/>
<glyph unicode="&#xf9;" horiz-adv-x="424" d="M210 -10Q151 -10 120 8T75 67T62 174V488Q62 494 64 496T75 499T108 500V167Q108 115 117 86T149 44T215 31Q233 31 262 36T316 56V488Q316 494 319 496T331 499T361 500V24Q328 6 287 -2T210 -10ZM276 569Q254
585 230 602T186 636T151 663T135 676Q136 683 142 698T157 713Q158 713 171 703T204 677T248 639T294 596Q294 596 291 590T284 576T276 569Z" />
<glyph unicode="&#xfa;" horiz-adv-x="424" d="M210 -10Q151 -10 120 8T75 67T62 174V488Q62 494 64 496T75 499T108 500V167Q108 115 117 86T149 44T215 31Q233 31 262 36T316 56V488Q316 494 319 496T331 499T361 500V24Q328 6 287 -2T210 -10ZM153 572Q150
572 146 578T138 592T135 599Q157 620 180 641T224 679T258 706T272 716Q281 716 287 701T294 679Q292 676 278 665T244 638T200 605T153 572Z" />
<glyph unicode="&#xfb;" horiz-adv-x="424" d="M210 -10Q151 -10 120 8T75 67T62 174V488Q62 494 64 496T75 499T108 500V167Q108 115 117 86T149 44T215 31Q233 31 262 36T316 56V488Q316 494 319 496T331 499T361 500V24Q328 6 287 -2T210 -10ZM296 573Q296
573 285 585T258 613T231 644T216 661Q216 661 204 648T176 618T145 587T126 574Q113 574 105 580T94 591L205 701Q210 703 217 703Q221 703 225 702T235 695Q235 695 249 680T283 646T316 610T331 591Q331 588 321 581T296 573Z" />
<glyph unicode="&#xfc;" horiz-adv-x="424" d="M210 -10Q151 -10 120 8T75 67T62 174V488Q62 494 64 496T75 499T108 500V167Q108 115 117 86T149 44T215 31Q233 31 262 36T316 56V488Q316 494 319 496T331 499T361 500V24Q328 6 287 -2T210 -10ZM158 598Q144
599 138 608T132 638Q133 657 140 667T161 677Q175 677 181 668T187 638Q186 619 180 609T158 598ZM265 598Q251 599 245 608T239 638Q240 657 247 667T268 677Q282 677 288 668T294 638Q293 619 287 609T265 598Z" />
<glyph unicode="&#xfd;" horiz-adv-x="375" d="M73 -193Q40 -193 22 -186T3 -167Q3 -159 6 -151T13 -139Q25 -145 42 -148T72 -152Q101 -152 127 -122T170 -16L37 485Q36 493 37 496T47 499T80 500L163 185Q170 158 175 132T184 85T190 50T193 37Q193 37 195 50T200
84T209 132T221 187L295 485Q297 493 299 496T312 499T345 500L209 -32Q194 -93 174 -128T130 -178T73 -193ZM128 572Q125 572 121 578T113 592T110 599Q132 620 155 641T199 679T233 706T247 716Q256 716 262 701T269 679Q267 676 253 665T219 638T175 605T128
572Z" />
<glyph unicode="&#xfe;" horiz-adv-x="406" d="M80 -200Q69 -200 65 -197T61 -183V470Q93 490 128 499T205 509Q256 509 293 490T350 424T370 292Q370 213 358 159T326 71T282 21T235 -3T194 -9Q161 -9 139 1T106 24V-197Q100 -199 94 -199T80 -200ZM184 31Q200
31 223 40T269 75T307 151T322 286Q322 360 308 399T267 453T204 468Q174 468 151 461T106 440V72Q120 50 140 41T184 31ZM61 241V712Q61 724 65 728T79 734T106 735V254L61 241Z" />
<glyph unicode="&#xff;" horiz-adv-x="375" d="M73 -193Q40 -193 22 -186T3 -167Q3 -159 6 -151T13 -139Q25 -145 42 -148T72 -152Q101 -152 127 -122T170 -16L37 485Q36 493 37 496T47 499T80 500L163 185Q170 158 175 132T184 85T190 50T193 37Q193 37 195 50T200
84T209 132T221 187L295 485Q297 493 299 496T312 499T345 500L209 -32Q194 -93 174 -128T130 -178T73 -193ZM133 598Q119 599 113 608T107 638Q108 657 115 667T136 677Q150 677 156 668T162 638Q161 619 155 609T133 598ZM240 598Q226 599 220 608T214 638Q215
657 222 667T243 677Q257 677 263 668T269 638Q268 619 262 609T240 598Z" />
<glyph unicode="&#x2013;" horiz-adv-x="440" d="M45 261Q45 286 47 294T58 303H395Q395 279 394 270T383 261H45Z" />
<glyph unicode="&#x2014;" horiz-adv-x="700" d="M6 261Q6 286 7 294T18 303H694Q694 279 693 270T682 261H6Z" />
<glyph unicode="&#x2018;" horiz-adv-x="153" d="M75 581Q58 581 49 590T39 624Q39 647 45 675T61 730T79 773T94 790Q101 790 107 786T114 774Q106 756 101 734T94 691T92 654Q100 648 105 639T110 617Q110 601 101 591T75 581Z" />
<glyph unicode="&#x2019;" horiz-adv-x="153" d="M59 574Q52 574 47 578T39 590Q48 609 53 631T60 674T62 710Q53 715 48 724T43 746Q43 763 53 773T79 783Q95 783 105 774T115 740Q115 717 109 689T93 634T74 591T59 574Z" />
<glyph unicode="&#x201a;" horiz-adv-x="152" d="M59 -111Q52 -111 47 -107T39 -95Q48 -76 53 -55T60 -12T62 25Q53 30 48 39T43 61Q43 77 53 87T79 98Q95 98 105 89T115 54Q115 32 109 4T93 -51T74 -94T59 -111Z" />
<glyph unicode="&#x201c;" horiz-adv-x="288" d="M209 581Q193 581 183 590T173 624Q173 647 179 675T195 730T213 773T229 790Q235 790 241 786T249 774Q240 756 235 734T229 691T226 654Q235 648 239 639T244 617Q244 601 235 591T209 581ZM75 581Q58 581 49
590T39 624Q39 647 45 675T61 730T79 773T94 790Q101 790 107 786T114 774Q106 756 101 734T94 691T92 654Q100 648 105 639T110 617Q110 601 101 591T75 581Z" />
<glyph unicode="&#x201d;" horiz-adv-x="288" d="M193 574Q187 574 181 578T173 590Q182 609 187 631T194 674T196 710Q187 715 183 724T178 746Q178 763 187 773T213 783Q230 783 239 774T249 740Q249 717 243 689T227 634T209 591T193 574ZM59 574Q52 574 47
578T39 590Q48 609 53 631T60 674T62 710Q53 715 48 724T43 746Q43 763 53 773T79 783Q95 783 105 774T115 740Q115 717 109 689T93 634T74 591T59 574Z" />
<glyph unicode="&#x201e;" horiz-adv-x="287" d="M193 -111Q187 -111 181 -107T173 -95Q182 -76 187 -55T194 -12T196 25Q187 30 183 39T178 61Q178 77 187 87T213 98Q230 98 239 89T249 54Q249 32 243 4T227 -51T209 -94T193 -111ZM59 -111Q52 -111 47 -107T39
-95Q48 -76 53 -55T60 -12T62 25Q53 30 48 39T43 61Q43 77 53 87T79 98Q95 98 105 89T115 54Q115 32 109 4T93 -51T74 -94T59 -111Z" />
<glyph unicode="&#x2022;" horiz-adv-x="210" d="M110 221Q82 221 69 238T55 281Q55 305 69 323T110 341Q139 341 153 324T168 281Q168 256 153 239T110 221Z" />
<glyph unicode="&#x2039;" horiz-adv-x="260" d="M188 0Q188 0 177 16T147 59T110 116T72 174T43 223T32 250Q32 256 43 276T71 324T106 383T142 440T170 483T181 500Q191 500 197 495T206 483T209 477Q209 472 200 453T175 408T143 355T110 304T86 265T76 250Q76
250 85 236T111 197T144 146T178 94T203 51T213 29Q213 29 210 22T202 7T188 0Z" />
<glyph unicode="&#x203a;" horiz-adv-x="260" d="M73 0Q73 0 69 1T60 5T51 14T47 28Q47 33 56 50T82 93T115 146T149 196T174 235T184 250Q184 250 175 265T150 303T118 354T85 408T61 453T51 477Q51 483 55 487T64 495T74 499T79 500Q79 500 89 484T117 441T153
384T189 325T217 276T228 250Q228 244 217 224T189 175T151 116T114 60T85 17T73 0Z" />
</font>
</defs>
</svg>
