<?xml version="1.0" standalone="no"?>
<!DOCTYPE svg PUBLIC "-//W3C//DTD SVG 1.1//EN" "http://www.w3.org/Graphics/SVG/1.1/DTD/svg11.dtd">
<svg xmlns="http://www.w3.org/2000/svg">
<defs >
<font id="YanoneKaffeesatz" horiz-adv-x="405" ><font-face
    font-family="Yanone Kaffeesatz ExtraLight ExtraLight"
    units-per-em="1000"
    panose-1="0 0 0 0 0 0 0 0 0 0"
    ascent="735"
    descent="-200"
    alphabetic="0" />
<glyph unicode=" " horiz-adv-x="190" />
<glyph unicode="!" horiz-adv-x="182" d="M80 164V700Q80 703 83 704T92 706T104 707V175Q104 171 101 169T92 165T80 164ZM90 -4Q77 -4 70 5T63 27Q63 39 70 48T90 57Q103 57 111 48T119 27Q119 14 111 5T90 -4Z" />
<glyph unicode="&quot;" horiz-adv-x="218" d="M45 584Q44 591 43 613T41 663T40 719T41 765T44 784Q47 785 53 785T65 785T71 784Q73 766 72 734T69 668T64 611T60 585Q59 584 55 584T48 583T45 584ZM151 584Q150 591 149 613T147 663T146 719T147 765T150 784Q153
785 159 785T171 785T177 784Q179 766 178 734T175 668T170 611T166 585Q165 584 161 584T154 583T151 584Z" />
<glyph unicode="#" horiz-adv-x="450" d="M277 107L297 487Q298 495 302 496T322 497L302 117Q301 110 298 109T277 107ZM118 107L138 487Q139 495 143 496T163 497L143 117Q142 110 139 109T118 107ZM50 209Q50 226 51 229T60 233H400Q400 217 399 213T390 209H50ZM50
379Q50 396 51 399T60 403H400Q400 387 399 383T390 379H50Z" />
<glyph unicode="$" horiz-adv-x="450" d="M209 -7Q164 -7 136 1T95 19T82 33Q82 35 84 38T89 45T96 49Q110 37 135 27T211 17Q288 17 319 55T350 151Q350 188 332 220T270 293L158 388Q126 417 106 445T86 507Q86 555 127 586T241 617Q281 617 307 610T345 596T358
587Q358 583 356 576T349 566Q336 575 308 584T236 593Q179 593 144 572T109 504Q109 481 127 456T171 407L297 300Q341 261 357 227T373 151Q373 105 357 70T305 14T209 -7ZM212 -121V8H233V-106Q233 -115 230 -118T212 -121ZM224 601V721Q224 731 228 733T246
736V601H224Z" />
<glyph unicode="%" horiz-adv-x="736" d="M218 340Q176 340 145 353T97 405T80 523Q80 620 118 664T221 708Q264 708 293 692T338 635T354 523Q354 432 318 386T218 340ZM213 362Q249 362 275 380T315 435T330 524Q330 588 317 622T280 670T222 684Q168 684 136
647T104 517Q104 456 116 422T153 375T213 362ZM151 -8Q151 -8 149 -8T143 -7T138 -4T135 3L577 708Q577 708 581 707T590 703T594 695Q594 695 576 666T525 586T454 473T373 344T291 215T220 102T170 22T151 -8ZM520 -8Q478 -8 447 5T399 57T382 175Q382 272 420
316T523 360Q566 360 595 344T640 287T656 175Q656 84 620 38T520 -8ZM515 14Q551 14 577 32T617 87T632 176Q632 240 619 274T582 322T524 336Q470 336 438 299T406 169Q406 108 418 74T455 27T515 14Z" />
<glyph unicode="&amp;" horiz-adv-x="526" d="M478 -9Q473 -9 449 13T388 74T311 162T229 266T155 376T101 480T80 568Q80 623 104 653T167 694T247 706Q309 706 347 691T385 667Q385 660 383 656T380 651Q357 666 323 675T247 684Q212 684 179 675T125 641T104
566Q104 530 127 479T190 369T274 253T363 145T442 59T494 11Q494 11 493 6T488 -4T478 -9ZM228 -10Q171 -10 136 6T81 50T54 109T47 173Q47 217 65 254T113 318T174 360L187 337Q160 327 134 304T90 246T72 170Q72 146 78 119T100 68T147 29T226 14Q282 14 318
36T374 91T404 161T416 226T419 268Q419 322 404 368T363 448T306 498Q328 500 343 501T373 502T402 503Q429 503 454 503T502 501Q503 497 503 495T503 487Q503 482 496 481T463 479L363 481Q375 472 394 446T427 374T442 263Q442 247 440 215T427 144T394 70T331
13T228 -10Z" />
<glyph unicode="&apos;" horiz-adv-x="112" d="M45 584Q44 591 43 613T41 663T40 719T41 765T44 784Q47 785 53 785T65 785T71 784Q73 766 72 734T69 668T64 611T60 585Q59 584 55 584T48 583T45 584Z" />
<glyph unicode="(" horiz-adv-x="296" d="M255 -200Q251 -200 231 -177T185 -110T134 -2T92 144T75 324Q75 421 93 498T137 633T191 729T237 787T259 806Q263 806 265 802T271 789Q250 769 221 731T164 636T118 502T99 324Q99 217 119 131T168 -19T226 -125T271
-185Q270 -191 265 -195T255 -200Z" />
<glyph unicode=")" horiz-adv-x="296" d="M41 -200Q37 -200 32 -196T25 -185Q42 -167 70 -125T127 -19T177 131T197 324Q197 424 179 501T132 636T75 731T25 789Q28 797 30 801T37 806Q39 806 58 787T105 730T158 633T203 498T221 324Q221 226 204 144T162 -2T111
-110T66 -177T41 -200Z" />
<glyph unicode="*" horiz-adv-x="473" d="M112 271Q108 265 103 267T92 275T85 286L203 431Q207 436 212 434T219 427L112 271ZM193 467L26 526Q26 533 30 540T40 551T51 553L202 480Q204 475 202 470T193 467ZM345 257L248 423Q245 428 248 431T257 436L367 281Q370
277 368 272T359 263T345 257ZM226 494L218 673Q218 676 222 678T233 680T249 675L241 501Q241 497 238 495T226 494ZM268 464Q264 469 264 475T271 485L435 552Q441 550 444 544T448 531T442 522L268 464Z" />
<glyph unicode="+" horiz-adv-x="450" d="M51 269Q51 286 52 290T61 294H401Q401 278 400 274T391 269H51ZM214 107V447Q214 455 218 456T239 457V117Q239 110 235 109T214 107Z" />
<glyph unicode="," horiz-adv-x="175" d="M66 -115Q62 -115 58 -111T53 -103Q70 -75 77 -50T84 1Q78 5 74 12T69 30Q69 43 76 50T95 58Q106 58 113 52T120 24Q120 4 114 -20T98 -65T80 -101T66 -115Z" />
<glyph unicode="-" horiz-adv-x="304" d="M50 269Q50 286 51 290T60 294H254Q254 278 253 274T244 269H50Z" />
<glyph unicode="." horiz-adv-x="175" d="M90 -4Q77 -4 70 5T63 27Q63 39 70 48T90 57Q103 57 111 48T119 27Q119 14 111 5T90 -4Z" />
<glyph unicode="/" horiz-adv-x="274" d="M10 -20L237 755Q239 760 241 762T249 764T264 765L38 -11Q37 -15 33 -17T24 -19T10 -20Z" />
<glyph unicode="0" horiz-adv-x="450" d="M223 -8Q162 -8 123 23T64 122T45 296Q45 442 88 521T233 600Q331 600 368 526T405 296Q405 198 387 130T328 27T223 -8ZM221 16Q281 16 316 49T366 146T381 300Q381 441 350 508T234 576Q146 576 108 502T69 287Q69 192
86 132T137 44T221 16Z" />
<glyph unicode="1" horiz-adv-x="450" d="M45 0Q45 0 45 12T45 24Q45 24 62 24T106 24T158 24T202 24T220 24L236 573Q236 573 221 570T184 563T140 554T102 546T87 543Q87 543 86 552T84 567Q84 567 101 570T142 579T191 589T233 597T250 601Q254 601 257 600T260
598L247 24H353Q376 24 390 25T405 26Q405 26 405 13T405 0H45Z" />
<glyph unicode="2" horiz-adv-x="450" d="M48 0Q48 0 47 4T45 15Q45 25 51 30T67 52Q95 96 132 137T208 218T280 299T333 384T354 478Q354 507 346 529T315 563T245 576Q201 576 168 570T111 554T71 533Q70 539 69 543T68 553Q68 559 88 570T146 590T239 600Q298
600 328 585T368 542T378 474Q378 422 357 376T302 286T228 200T148 115T76 24H321Q321 24 333 24T362 24T391 24T404 24Q404 24 404 12T404 0H48Z" />
<glyph unicode="3" horiz-adv-x="450" d="M169 -100Q111 -100 83 -85T54 -61Q54 -53 55 -49T58 -40Q81 -58 106 -67T173 -76Q232 -76 276 -45T344 40T369 158Q369 199 355 223T316 260T262 277T199 285L197 306Q262 347 304 392T346 489Q346 504 338 524T307 560T237
576Q170 576 131 564T63 531Q61 535 61 541T60 550Q60 563 104 581T231 600Q290 600 320 583T360 540T370 486Q370 449 351 416T301 356T239 305Q278 302 313 288T370 242T393 154Q393 85 367 27T290 -65T169 -100Z" />
<glyph unicode="4" horiz-adv-x="450" d="M286 0V182H53Q53 182 52 184T50 190Q50 208 58 237T83 302T120 377T168 456T225 532T287 598Q292 602 296 602T302 603Q307 603 310 601T313 599L310 206Q348 206 378 206T409 206Q409 206 409 204T410 194Q410 190 409
186T402 182H310V14Q310 7 310 4T305 1T286 0ZM75 206H286L291 570Q263 540 231 501T168 414T113 314T75 206Z" />
<glyph unicode="5" horiz-adv-x="450" d="M165 -100Q107 -100 76 -86T45 -61Q45 -56 46 -51T49 -40Q69 -57 98 -66T169 -76Q247 -76 291 -41T353 56T371 198Q371 252 349 285T295 334T228 356T169 362Q121 362 89 353T56 344L82 600H388Q388 589 387 584T382 577T370
576Q370 576 351 576T302 576T237 576T173 576T123 576T104 576L82 377Q82 377 102 381T167 385Q199 386 238 380T312 355T371 297T395 194Q395 106 375 40T305 -63T165 -100Z" />
<glyph unicode="6" horiz-adv-x="450" d="M215 -9Q162 -9 129 12T78 73T54 166T47 283Q47 396 65 475T116 604T191 677T279 700Q309 700 334 697T374 689T389 676Q389 669 388 664T387 658Q365 667 343 671T271 676Q220 676 174 635T99 509T70 294Q70 242 74 193T93
103T136 39T215 15Q270 15 307 41T364 117T383 235Q383 328 346 370T243 412Q183 412 134 371T61 252V290Q81 363 131 399T247 436Q316 436 361 390T407 242Q407 125 362 58T215 -9Z" />
<glyph unicode="7" horiz-adv-x="450" d="M112 -81Q112 -81 106 -81T94 -80T88 -76Q111 20 138 103T195 257T255 387T316 493T373 576Q373 576 331 576T220 576T70 576Q67 576 65 578T61 586T60 600H420Q364 527 307 428T199 201T112 -81Z" />
<glyph unicode="8" horiz-adv-x="450" d="M235 -9Q173 -9 132 14T70 80T49 179Q49 229 72 271T131 342T208 385H226Q264 399 298 422T354 476T376 544Q376 591 362 618T325 660T277 678T230 682Q191 682 157 668T101 623T79 542Q79 508 95 479T152 424Q170 413
202 401T270 373T337 331Q368 306 388 272T409 180Q409 119 390 77T332 13T235 -9ZM235 14Q310 14 348 60T387 179Q387 231 365 263T313 319Q289 339 255 353T187 381T127 411Q90 434 73 469T56 541Q56 599 81 635T145 688T230 706Q254 706 283 701T339 679T382
630T399 545Q399 499 376 465T320 408T255 370L236 369Q193 359 156 331T96 264T73 178Q73 109 113 62T235 14Z" />
<glyph unicode="9" horiz-adv-x="450" d="M151 -103Q121 -103 97 -100T73 -89Q73 -82 74 -77T75 -71Q97 -77 114 -78T151 -79Q207 -79 249 -55T322 17T367 140T382 313Q382 365 378 413T359 501T316 563T237 586Q155 586 112 530T69 362Q69 269 110 228T213 186Q269
186 315 226T391 335V301Q369 237 323 200T209 162Q164 162 127 182T68 244T45 355Q45 478 91 544T237 610Q290 610 323 591T374 533T398 440T405 314Q405 100 339 -1T151 -103Z" />
<glyph unicode=":" horiz-adv-x="175" d="M89 356Q76 356 69 365T62 387Q62 399 69 408T89 417Q102 417 110 408T118 387Q118 374 110 365T89 356ZM89 -4Q76 -4 69 5T62 27Q62 39 69 48T89 57Q102 57 110 48T118 27Q118 14 110 5T89 -4Z" />
<glyph unicode=";" horiz-adv-x="175" d="M65 -115Q61 -115 57 -111T52 -103Q69 -75 76 -50T83 1Q77 5 73 12T68 30Q68 43 75 50T94 58Q105 58 112 52T119 24Q119 4 113 -20T97 -65T79 -101T65 -115ZM93 356Q80 356 73 365T66 387Q66 399 73 408T93 417Q106 417
114 408T122 387Q122 374 114 365T93 356Z" />
<glyph unicode="&lt;" horiz-adv-x="400" d="M334 128Q329 128 314 134L55 247Q50 253 50 262Q50 267 52 270T60 277L334 413Q339 407 340 403T342 396Q342 389 336 386L83 261L346 149Q346 137 342 133T334 128Z" />
<glyph unicode="=" horiz-adv-x="450" d="M51 349Q51 366 52 370T61 374H401Q401 358 400 354T391 349H51ZM51 189Q51 206 52 210T61 214H401Q401 198 400 194T391 189H51Z" />
<glyph unicode="&gt;" horiz-adv-x="400" d="M65 125Q60 131 59 135T57 142Q57 149 63 152L316 277L53 389Q53 401 57 405T65 410Q70 410 85 404L344 291Q349 285 349 276Q349 272 347 268T339 261L65 125Z" />
<glyph unicode="?" horiz-adv-x="296" d="M115 184Q115 184 112 196T107 229T112 278T137 338Q151 361 171 385T211 436T244 495T258 567Q258 609 245 633T213 669T175 683T143 686Q112 686 84 678T32 652Q32 652 32 656T31 670Q31 677 46 686T86 702T142 710Q165
710 189 705T234 684T269 641T282 566Q282 524 268 489T232 425T191 372T158 326Q135 288 132 257T133 206T137 186Q136 184 132 183T124 182T115 184ZM128 -4Q115 -4 108 5T101 27Q101 39 108 48T128 57Q141 57 149 48T157 27Q157 14 149 5T128 -4Z" />
<glyph unicode="@" horiz-adv-x="773" d="M403 -188Q348 -188 297 -182T203 -152T128 -79T78 53T60 265Q60 383 86 464T160 594T273 665T417 687Q521 687 587 652T684 541T715 349Q715 248 702 184T668 82T625 28T583 7T555 3Q531 3 513 14T487 36L494 63Q506
44 521 35T555 25Q563 25 579 29T614 51T652 103T681 198T693 352Q693 461 665 530T575 632T415 665Q318 665 243 627T126 500T83 263Q83 144 99 65T145 -60T215 -129T302 -159T401 -166Q464 -166 508 -156T583 -131T635 -103Q635 -103 638 -111T642 -127Q642 -131
613 -146T529 -174T403 -188ZM383 22Q404 22 427 27T466 41T482 56L490 279Q475 282 456 283T423 285Q383 285 349 274T295 232T272 147Q270 92 285 65T327 30T383 22ZM376 1Q341 0 312 10T265 53T250 148Q253 212 276 246T339 293T426 306Q443 306 460 305T490
301Q490 301 491 324T493 367Q495 409 482 431T445 460T390 468Q354 468 326 462T274 443Q273 446 272 449T271 457Q271 465 280 471Q298 481 326 486T399 492Q457 492 487 466T515 371L507 139Q506 103 505 83T502 51Q501 41 499 37T494 31Q483 24 454 13T376
1Z" />
<glyph unicode="A" horiz-adv-x="436" d="M24 -1Q23 -1 19 -1T10 0L210 703Q210 705 215 705Q218 705 220 705T224 703L425 10Q427 4 425 2T417 -1Q414 -1 410 -1T401 0L268 470Q256 516 245 557T226 629T217 669Q216 659 209 629T190 558T166 470L38 6Q37 1 33
0T24 -1ZM92 212V236H355V212H92Z" />
<glyph unicode="B" horiz-adv-x="410" d="M68 0V684Q68 691 72 695T92 700H193Q220 700 249 694T303 673T343 628T359 550Q359 487 342 453T301 405T257 387Q272 387 292 381T333 360T366 315T380 239Q380 169 365 124T325 54T273 17T223 3T185 0H68ZM92 24H184Q216
24 246 33T302 65T341 130T356 237Q356 285 343 312T306 352T251 368T183 371H92V24ZM92 395H197Q235 395 266 408T316 454T335 549Q335 601 314 628T259 666T188 677H92V395Z" />
<glyph unicode="C" horiz-adv-x="369" d="M213 -9Q194 -9 172 -6T128 13T88 63T59 157T48 311Q48 421 59 493T89 609T133 674T185 702T239 709Q267 709 287 701T319 682T331 663Q331 659 329 654T324 647Q321 651 309 660T278 677T236 686Q213 686 190 680T146
652T109 590T83 479T73 306Q73 209 86 151T119 64T165 26T214 16Q254 16 287 36T332 76Q334 72 336 68T339 58Q339 47 322 31T277 3T213 -9Z" />
<glyph unicode="D" horiz-adv-x="437" d="M70 0V684Q70 691 74 695T94 700H195Q242 700 278 682T339 626T376 529T389 388Q389 260 372 183T326 67T261 14T187 0H70ZM94 24H186Q220 24 252 36T309 86T350 196T365 388Q365 462 355 516T324 605T269 658T190 676H94V24Z" />
<glyph unicode="E" horiz-adv-x="357" d="M71 0V690Q71 690 72 695T81 700H320Q320 690 320 685T319 678T314 676H95V24H322Q322 14 322 9T320 2T314 0H71ZM87 372V396H300Q300 381 299 377T292 372H87Z" />
<glyph unicode="F" horiz-adv-x="344" d="M71 0V690Q71 690 72 695T81 700H320Q320 690 320 685T319 678T314 676H95V10Q95 10 94 5T85 0H71ZM87 373V397H300Q300 382 299 378T292 373H87Z" />
<glyph unicode="G" horiz-adv-x="415" d="M233 -10Q195 -10 162 3T103 54T63 161T48 346Q48 458 63 529T105 639T170 694T253 710Q295 710 325 698T356 671Q356 667 355 664T351 655Q334 669 312 677T256 686Q217 686 184 672T125 622T86 519T72 346Q72 234 85
168T121 68T173 25T235 14Q267 14 289 23T326 46T343 67V360H218V374Q218 384 228 384H367V60Q364 52 350 35T308 4T233 -10Z" />
<glyph unicode="H" horiz-adv-x="459" d="M367 0V690Q367 695 368 697T374 699T391 700V10Q391 5 390 3T384 1T367 0ZM68 0V690Q68 695 69 697T75 699T92 700V10Q92 5 91 3T85 1T68 0ZM84 373V397H379V373H84Z" />
<glyph unicode="I" horiz-adv-x="161" d="M68 0V684Q68 692 69 695T75 699T93 700V10Q93 5 92 3T85 1T68 0Z" />
<glyph unicode="J" horiz-adv-x="297" d="M116 -10Q89 -10 68 -3T34 14T21 35Q21 40 23 45T29 54Q43 37 64 26T115 14Q159 14 178 39T201 104T205 184V685Q205 693 206 696T212 699T229 700V172Q229 144 227 113T214 53T181 8T116 -10Z" />
<glyph unicode="K" horiz-adv-x="392" d="M363 -1Q360 -1 357 -1T350 0Q319 82 292 138T241 231T194 294T151 339Q136 354 119 363T84 379V389L342 699Q346 700 349 700T357 700Q376 700 363 685L115 392Q183 358 249 267T370 13Q373 6 371 3T363 -1ZM68 0V690Q68
695 69 697T75 699T92 700V10Q92 5 91 3T85 1T68 0Z" />
<glyph unicode="L" horiz-adv-x="343" d="M68 0V685Q68 693 69 696T75 699T94 700V23H323V10Q323 3 321 2T313 0H68Z" />
<glyph unicode="M" horiz-adv-x="510" d="M241 129L180 328Q180 328 173 350T155 408T131 482T107 557T88 614T81 637L89 700L214 293Q214 293 220 274T234 228T248 183T254 163Q254 163 260 182T273 226T287 270T293 289L418 690L425 630Q425 630 418 608T401
552T378 479T355 406T337 350T330 328L267 139Q264 129 256 129H241ZM68 0V690Q68 695 71 697T78 700H89L92 686V631Q92 631 92 611T92 559T92 492T92 424T92 372T92 352V10Q92 5 91 3T85 1T68 0ZM418 0V342Q418 342 418 364T418 421T418 494T418 568T418 625T418
647V659V690Q418 690 420 695T428 700Q435 700 438 700T441 700T442 700V10Q442 5 441 3T435 1T418 0Z" />
<glyph unicode="N" horiz-adv-x="470" d="M380 0L249 288Q249 288 237 315T206 385T165 476T124 567T92 637T80 664L71 683L78 700H90L218 417Q218 417 230 391T261 322T301 234T341 145T372 77T384 50L399 17L392 0H380ZM68 0V690Q68 700 78 700L92 690V669Q92
669 92 639T92 563T92 463T92 364T92 287T92 257V10Q92 5 91 3T85 1T68 0ZM392 0L378 10V37Q378 37 378 67T378 144T378 243T378 343T378 420T378 450V690Q378 695 379 697T385 699T402 700V10Q402 0 392 0Z" />
<glyph unicode="O" horiz-adv-x="466" d="M230 -10Q182 -10 148 8T92 69T59 182T48 355Q48 482 69 560T133 674T241 710Q289 710 323 691T378 630T408 521T418 355Q418 223 399 143T338 27T230 -10ZM229 14Q287 14 323 47T376 155T394 358Q394 482 378 553T328
655T240 686Q184 686 147 653T91 545T72 343Q72 222 88 150T140 46T229 14Z" />
<glyph unicode="P" horiz-adv-x="381" d="M86 310Q73 310 76 313T80 321V684Q80 691 80 695T81 700H187Q250 700 286 674T336 606T351 518Q351 467 340 429T307 364T253 324T179 310H86ZM68 0V690Q68 695 71 697T78 700H82Q90 700 91 695T92 690V10Q92 5 91 3T85
1T68 0ZM86 334H178Q230 334 262 357T311 421T327 518Q327 560 315 596T271 654T182 676H86V334Z" />
<glyph unicode="Q" horiz-adv-x="466" d="M319 -129Q281 -129 259 -100T225 1H250Q261 -63 277 -85T322 -107Q346 -107 362 -102T389 -90Q392 -93 393 -97T395 -105Q395 -111 385 -116T357 -125T319 -129ZM230 -10Q182 -10 148 8T92 69T59 182T48 355Q48 482 69
560T133 674T241 710Q289 710 323 691T378 630T408 521T418 355Q418 223 399 143T338 27T230 -10ZM229 14Q287 14 323 47T376 155T394 358Q394 482 378 553T328 655T240 686Q184 686 147 653T91 545T72 343Q72 222 88 150T140 46T229 14Z" />
<glyph unicode="R" horiz-adv-x="385" d="M86 310Q73 310 76 313T80 321V684Q80 691 80 695T81 700H187Q250 700 286 674T336 606T351 518Q351 467 340 429T307 364T253 324T179 310H86ZM68 0V690Q68 690 69 695T78 700H82Q90 700 91 695T92 690V10Q92 5 91 3T85
1T68 0ZM330 0Q328 0 325 0T317 0Q305 83 286 142T247 240T214 296T200 314Q200 314 199 318T204 326L212 330Q218 330 222 325Q222 325 236 304T272 243T312 144T340 12Q341 5 339 3T330 0ZM86 334H178Q230 334 262 357T311 421T327 518Q327 560 315 596T271 654T182
676H86V334Z" />
<glyph unicode="S" horiz-adv-x="383" d="M174 -10Q104 -10 73 8T42 36Q42 41 45 45T54 52Q70 37 97 26T176 14Q253 14 287 55T321 161Q321 212 303 251T238 337L121 445Q87 479 67 511T46 584Q46 639 89 674T208 710Q270 710 299 697T329 672Q329 668 327 663T320
655Q307 666 278 676T202 687Q143 687 107 659T70 585Q70 550 89 522T135 467L266 344Q311 299 328 259T345 166Q345 114 327 74T271 12T174 -10Z" />
<glyph unicode="T" horiz-adv-x="360" d="M166 0V683Q166 683 167 688T176 693H180Q188 693 189 688T190 683V9Q190 5 189 3T183 1T166 0ZM5 676V690Q5 700 15 700H355V686Q355 682 353 679T345 676H5Z" />
<glyph unicode="U" horiz-adv-x="484" d="M250 -10Q187 -10 151 9T97 61T74 137T68 227V690Q68 695 69 697T75 699T92 700V227Q92 186 96 148T117 79T164 32T250 14Q293 14 333 23T392 41V691Q392 696 393 697T400 699T416 700V23Q396 10 348 0T250 -10Z" />
<glyph unicode="V" horiz-adv-x="421" d="M211 -10Q207 -10 203 5T190 48Q178 91 160 154T122 289T81 431T44 559T17 651T7 686Q5 692 5 696T11 700H27L171 201Q182 166 189 138T203 83T216 27Q222 57 228 83T241 137T258 201L390 686Q392 692 393 696T400 700H417L224
-9Q224 -9 221 -9T211 -10Z" />
<glyph unicode="W" horiz-adv-x="629" d="M460 -11Q458 -11 455 2T446 34L342 474Q342 474 339 489T332 527T323 572T315 609T312 625L306 646Q304 652 304 656T310 660H327L434 200Q443 164 447 140T456 95T465 43H467Q473 75 479 115T495 200L599 686Q601 692
602 696T609 700H626L473 -9Q473 -9 472 -9T468 -10T460 -11ZM169 -10Q166 -10 162 6T152 50Q143 94 129 157T98 292T65 433T36 560T14 651T6 686Q5 690 5 695T10 700H27L142 200Q150 164 155 140T164 93T174 41H176Q181 85 188 121T204 200L299 646Q301 652 302
656T309 660H318Q325 660 325 656T323 646L316 625Q316 625 313 610T306 573T298 529T291 491T288 476L183 -9Q183 -9 179 -9T169 -10Z" />
<glyph unicode="X" horiz-adv-x="429" d="M12 0L202 371L213 377Q213 377 227 406T262 480T306 571L366 695Q368 698 369 699T376 700T397 700L230 357L219 353Q219 353 206 327T172 258T127 170L43 4Q40 0 34 0H12ZM389 0L305 169Q282 216 261 258T227 326T213
353L203 359L39 695Q38 698 38 699T43 700T64 700L127 571Q150 524 171 480T205 407T219 378L227 371L416 9Q418 5 416 3T411 0H389Z" />
<glyph unicode="Y" horiz-adv-x="357" d="M184 266L176 267L6 695Q5 698 6 699T13 700T32 700L91 551Q105 516 120 475T149 396T171 335T180 311Q180 311 188 335T211 396T240 474T269 551L324 695Q325 698 326 699T334 700T352 700L184 266ZM168 0V301H192V10Q192
5 191 3T185 1T168 0Z" />
<glyph unicode="Z" horiz-adv-x="402" d="M38 0Q35 1 33 4T31 11Q31 16 32 19T35 27L337 676H95Q77 676 67 676T57 676V690Q57 700 67 700H364Q366 698 367 695T368 689Q368 682 364 673L60 24H323Q337 24 349 24T368 27V10Q368 6 366 3T358 0H38Z" />
<glyph unicode="[" horiz-adv-x="450" d="M183 -197V808Q183 814 185 816T191 820T203 821H439Q439 812 438 808T434 803T421 801H206V-174H437Q437 -185 435 -190T428 -196T418 -197H183Z" />
<glyph unicode="\" horiz-adv-x="273" d="M240 -30L11 755Q10 760 11 762T18 764T33 765L262 -21Q264 -25 262 -27T254 -29T240 -30Z" />
<glyph unicode="]" horiz-adv-x="450" d="M11 -200Q11 -191 12 -187T17 -181T29 -180H244V799H13Q13 811 15 815T22 821T32 822H267V-187Q267 -192 265 -195T259 -199T247 -200H11Z" />
<glyph unicode="^" horiz-adv-x="430" d="M80 218Q75 218 72 222T68 232L216 373L353 242Q356 239 357 237T358 232Q358 227 354 223T344 218L215 342L98 229Q91 222 87 220T80 218Z" />
<glyph unicode="_" horiz-adv-x="390" d="M20 -76Q20 -59 21 -55T30 -51H370Q370 -67 369 -71T360 -76H20Z" />
<glyph unicode="`" horiz-adv-x="250" d="M191 579Q163 599 137 618T92 654T61 679T49 689Q49 689 52 700T62 712Q62 712 74 703T106 677T151 639T201 595Q201 595 199 591T194 583T191 579Z" />
<glyph unicode="a" horiz-adv-x="383" d="M190 -10Q163 -11 138 -7T91 11T58 54T45 135Q45 189 59 221T97 269T151 291T212 297Q238 297 261 295T303 287Q303 287 303 305T303 347T303 385Q303 428 290 449T255 478T204 486Q147 486 106 478T48 460Q46 464 45
466T44 473Q44 478 45 481T49 486Q66 495 111 502T209 510Q265 510 296 484T327 389V323Q327 266 326 214T324 115T321 28Q309 21 278 6T190 -10ZM197 14Q231 14 259 24T297 43Q299 70 300 107T302 185T303 264Q284 269 260 272T217 275Q189 275 163 271T115 254T82
212T69 136Q69 91 79 66T108 30T150 17T197 14Z" />
<glyph unicode="b" horiz-adv-x="422" d="M185 -10Q146 -10 118 -3T70 20V720Q70 728 72 731T80 734T94 735V463Q122 485 156 497T240 510Q281 510 312 493T362 435T380 324Q380 235 368 175T334 78T288 22T236 -3T185 -10ZM186 14Q210 14 239 23T295 62T339 151T356
311Q356 379 343 417T302 470T231 486Q192 486 158 474T94 433V37Q105 29 127 22T186 14Z" />
<glyph unicode="c" horiz-adv-x="352" d="M201 -10Q170 -10 143 -2T95 32T62 107T50 239Q50 329 66 383T110 464T170 501T232 510Q264 510 290 499T316 476Q316 473 315 468T310 458Q298 468 277 477T225 486Q201 486 175 478T125 445T88 370T74 234Q74 163 84
120T111 53T153 22T205 13Q244 13 271 26T312 53Q315 49 316 45T318 35Q318 23 286 7T201 -10Z" />
<glyph unicode="d" horiz-adv-x="422" d="M213 -10Q179 -10 150 -2T98 31T63 106T50 241Q50 334 75 393T142 481T233 510Q262 510 285 505T327 486V720Q327 728 329 731T338 734T352 735V20Q328 7 292 -1T213 -10ZM220 14Q250 14 278 20T328 39L327 458Q308 474
289 480T236 486Q202 486 173 471T121 424T87 348T74 241Q74 163 85 118T115 50T161 21T220 14Z" />
<glyph unicode="e" horiz-adv-x="390" d="M216 -10Q180 -10 149 -3T95 28T60 97T47 221Q47 320 64 378T108 465T166 501T227 510Q295 510 323 466T352 354Q352 325 351 297T345 246Q300 237 251 233T160 228T92 227T66 228V252Q66 252 92 252T159 252T244 256T324
267Q326 290 327 307T328 342Q327 408 307 447T228 486Q204 486 177 480T126 449T86 369T71 217Q71 147 82 107T113 46T159 20T215 14Q252 14 286 23T343 51Q346 45 347 40T348 32Q348 25 330 15T281 -2T216 -10Z" />
<glyph unicode="f" horiz-adv-x="241" d="M102 0V476H17Q17 487 17 492T20 498T27 500H102V567Q102 625 117 659T155 711T206 734T259 740Q303 740 320 733T338 720Q338 716 337 713T334 705Q316 710 299 713T257 716Q236 716 213 712T170 693T138 648T126 563V500H248Q248
489 248 484T245 478T238 476H126V10Q126 5 124 3T116 0H102Z" />
<glyph unicode="g" horiz-adv-x="414" d="M202 -198Q137 -198 103 -183T57 -145T45 -94Q45 -64 64 -35T109 19T158 53L179 42Q156 32 130 9T87 -41T69 -94Q69 -116 78 -134T117 -163T202 -174Q286 -174 329 -140T373 -64Q373 -31 357 -15T314 8T261 18Q207 24
162 33T89 55T62 89Q62 104 75 122T106 158T141 184L163 174Q146 165 128 150T98 119T86 91Q86 75 136 62T263 40Q297 36 327 27T377 -2T397 -63Q397 -95 376 -126T311 -178T202 -198ZM217 154Q152 154 118 179T73 246T61 332Q61 390 83 429T143 489T223 510Q233
510 252 508T285 500L293 488Q333 478 356 443T379 350Q379 300 363 255T311 182T217 154ZM220 178Q267 178 297 204T341 270T355 350Q355 419 320 452T223 486Q186 486 155 469T104 418T85 330Q85 294 94 259T132 201T220 178ZM379 483Q364 483 347 483T314 484T288
485T278 486L243 505H393Q393 505 394 503T395 496Q395 490 392 487T379 483Z" />
<glyph unicode="h" horiz-adv-x="415" d="M66 0V720Q66 728 68 731T75 734T90 735V463Q125 489 162 499T234 510Q286 510 313 493T351 446T361 373V10Q361 5 360 3T354 1T337 0V373Q337 425 317 455T232 486Q201 486 162 474T90 430V10Q90 5 89 3T83 1T66 0Z" />
<glyph unicode="i" horiz-adv-x="166" d="M71 0V485Q71 493 73 496T80 499T95 500V10Q95 5 94 3T88 1T71 0ZM338 614Q328 615 324 622T321 642Q322 656 326 663T340 670Q350 670 354 662T358 640Q357 627 353 621T338 614Z" />
<glyph unicode="j" horiz-adv-x="179" d="M-14 -194Q-66 -194 -95 -180T-125 -155Q-125 -150 -124 -146T-119 -137Q-102 -150 -77 -160T-11 -170Q29 -170 47 -153T71 -105T77 -28V485Q77 493 79 496T86 499T101 500V-37Q101 -84 93 -119T59 -174T-14 -194ZM345
614Q335 615 331 622T328 642Q329 656 333 663T347 670Q357 670 361 662T365 640Q364 627 360 621T345 614Z" />
<glyph unicode="k" horiz-adv-x="404" d="M70 0V720Q70 728 72 731T79 734T94 735V431Q129 471 175 490T254 510Q286 510 305 500T334 471T344 421Q344 384 328 356T290 308T246 276T214 260Q234 265 265 255T324 215T363 128Q368 105 368 76T364 13Q363 6 362
4T356 1T338 0Q346 56 342 96T327 163Q314 195 293 212T248 235T204 240T170 235Q160 232 142 226T109 214T94 208V10Q94 5 94 3T88 1T70 0ZM94 234Q155 253 206 279T289 340T320 421Q320 486 252 486Q217 486 176 467T94 402V234Z" />
<glyph unicode="l" horiz-adv-x="165" d="M70 0V720Q70 728 72 731T79 734T94 735V10Q94 5 93 3T87 1T70 0Z" />
<glyph unicode="m" horiz-adv-x="625" d="M70 0V477Q111 494 146 502T215 510Q272 510 296 493T324 444T329 368V10Q329 5 328 3T322 1T305 0V367Q305 406 302 432T280 472T216 486Q188 486 159 481T94 459V10Q94 5 93 3T86 1T70 0ZM305 0V464Q329 480 354 490T403
505T450 510Q499 510 522 493T553 443T561 360V10Q561 5 560 3T554 1T537 0V367Q537 429 522 457T451 486Q423 486 392 479T329 449V10Q329 5 328 3T321 1T305 0Z" />
<glyph unicode="n" horiz-adv-x="422" d="M67 0V474Q94 485 120 493T175 505T232 510Q288 510 317 494T356 446T366 368V10Q366 5 365 3T359 1T342 0V364Q342 426 322 456T233 486Q205 486 164 479T91 457V10Q91 5 90 3T84 1T67 0Z" />
<glyph unicode="o" horiz-adv-x="401" d="M195 -10Q161 -10 133 -1T83 34T51 111T40 248Q40 388 85 449T207 510Q258 510 292 488T343 408T361 248Q361 118 318 54T195 -10ZM196 14Q240 14 271 40T320 120T337 252Q337 346 321 396T276 466T206 486Q163 486 131
463T82 386T64 241Q64 173 73 129T98 59T140 24T196 14Z" />
<glyph unicode="p" horiz-adv-x="419" d="M81 -197Q76 -197 73 -195T70 -188V469Q103 490 137 500T212 510Q265 510 302 490T359 423T379 294Q379 212 366 158T332 70T287 19T239 -4T197 -10Q160 -10 132 5T94 35V-195Q90 -196 87 -196T81 -197ZM195 14Q214 14
241 22T294 57T337 136T355 281Q355 362 339 406T290 468T211 486Q144 486 94 454V75Q111 44 139 29T195 14Z" />
<glyph unicode="q" horiz-adv-x="430" d="M343 -198Q342 -198 340 -198T335 -198V53Q314 24 281 7T203 -10Q181 -10 154 -3T104 28T65 99T49 224Q49 295 62 348T102 438T165 492T248 510Q283 510 310 503T359 478V-188Q359 -195 357 -196T343 -198ZM210 14Q242
13 278 31T335 93V464Q323 473 299 479T246 486Q191 486 153 457T94 369T73 220Q73 150 86 109T121 47T166 21T210 14Z" />
<glyph unicode="r" horiz-adv-x="289" d="M67 0V466Q102 491 136 500T198 510Q233 510 253 502T273 483Q273 479 271 474T267 467Q256 474 240 480T200 486Q169 486 142 478T91 451V10Q91 5 90 3T83 1T67 0Z" />
<glyph unicode="s" horiz-adv-x="395" d="M181 -10Q118 -10 84 2T50 25Q50 30 51 34T58 43Q81 28 109 21T180 14Q242 14 280 37T318 111Q318 149 300 177T244 230L129 297Q80 326 67 349T54 402Q54 437 75 461T134 497T215 510Q258 510 286 502T330 483T345 467Q345
460 336 449Q308 468 281 477T215 486Q158 486 118 465T78 403Q78 381 89 363T138 321L265 244Q303 218 322 188T342 120Q342 55 300 23T181 -10Z" />
<glyph unicode="t" horiz-adv-x="305" d="M199 -10Q159 -10 143 11T123 70T119 153V476H36Q36 487 36 492T39 498T44 500H119V665Q119 673 120 676T127 679T143 680V500H284Q284 490 284 485T283 478T278 476H143V150Q143 111 146 80T161 32T201 14Q226 14 240
19T272 32Q274 28 274 25T275 17Q275 10 265 4T237 -6T199 -10Z" />
<glyph unicode="u" horiz-adv-x="445" d="M219 -10Q161 -10 130 8T86 69T73 185V490Q73 495 74 497T80 499T97 500V178Q97 114 108 79T147 29T227 14Q247 14 282 20T348 42V490Q348 495 350 497T357 499T372 500V23Q335 4 294 -3T219 -10Z" />
<glyph unicode="v" horiz-adv-x="370" d="M181 -9Q181 -9 178 4T167 40L34 490Q33 495 34 497T41 499T55 500L112 310Q127 259 141 210T165 120T182 56T188 32H189Q189 32 194 56T210 120T233 210T261 312L312 490Q314 495 315 497T322 499T337 500L194 -9Q194
-9 188 -9T181 -9Z" />
<glyph unicode="w" horiz-adv-x="567" d="M399 -9Q399 -9 395 7T383 48L364 118Q349 172 336 221T312 311T294 382T282 428T277 445L272 470Q271 475 273 477T282 480H293L341 293Q354 242 365 197T386 116T400 61T405 41H406Q410 62 418 102T438 194T461 295L506
490Q507 495 508 497T515 499T534 500Q534 500 528 473T510 400T486 300T460 191T436 92T419 19T412 -9Q412 -9 406 -9T399 -9ZM161 -9Q161 -9 157 4T148 40Q140 73 129 118T105 214T79 314T56 402T39 466T33 490Q32 495 33 497T39 499T56 500L107 295Q120 243
131 197T150 116T163 61T168 41H169Q174 64 184 108T207 202T229 297L268 470Q269 475 271 477T278 480H284Q289 480 291 479T294 475T294 470L287 445Q287 445 283 429T272 382T255 310T233 220T207 117L175 -9Q175 -9 172 -9T165 -9T161 -9Z" />
<glyph unicode="x" horiz-adv-x="468" d="M30 0L223 271L232 279Q232 279 246 299T282 350T324 409L385 495Q387 498 388 499T396 500T417 500L247 261L240 255Q240 255 230 241T203 203T166 151T127 96L64 6Q62 3 59 2T50 1T30 0ZM410 0L341 98Q322 124 303 151T268
202T242 239T232 253L224 259L58 495Q57 497 57 498T64 499T83 500L149 407Q169 379 190 350T225 300T239 279L247 272L435 9Q439 5 439 3T432 1T410 0Z" />
<glyph unicode="y" horiz-adv-x="386" d="M71 -193Q45 -193 27 -189T8 -174Q8 -169 10 -164T16 -157Q29 -163 45 -166T72 -169Q105 -169 134 -135T186 -16L45 490Q44 495 44 497T50 499T67 500L167 141Q174 116 179 93T189 50T195 20T198 9Q198 9 200 20T206 50T215
93T228 143L320 490Q322 495 323 497T329 499T348 500L205 -35Q189 -94 169 -128T124 -178T71 -193Z" />
<glyph unicode="z" horiz-adv-x="398" d="M44 0Q44 0 42 3T40 13Q40 17 41 20T43 26L326 476H184Q137 476 102 475T46 472Q45 477 45 480T45 486Q45 492 47 496T54 500H354Q354 500 356 498T358 490Q358 486 357 482T354 474L69 24H218Q274 24 305 25T356 29Q356
27 356 23T356 15Q356 7 354 4T347 0H44Z" />
<glyph unicode="{" horiz-adv-x="296" d="M263 -151Q190 -151 154 -124T118 -18Q118 36 125 87T132 203Q132 246 113 263T67 285Q66 289 66 293T65 299Q65 312 77 318Q93 327 105 336T125 364T132 417Q132 477 125 526T118 629Q118 674 138 699T193 734T273 744Q275
741 276 738T277 730Q277 719 266 719Q230 718 202 711T158 685T142 625Q142 586 149 536T156 418Q156 363 137 338T90 302Q120 293 138 273T156 209Q156 139 149 86T142 -15Q142 -69 157 -91T202 -120T272 -129Q273 -132 273 -134T274 -139Q274 -144 272 -147T263
-151Z" />
<glyph unicode="|" horiz-adv-x="389" d="M183 -200V805Q183 810 185 812T192 814T206 815V-191Q206 -195 204 -197T196 -199T183 -200Z" />
<glyph unicode="}" horiz-adv-x="296" d="M23 -151Q21 -148 20 -145T19 -137Q19 -126 30 -126Q66 -125 94 -118T138 -91T154 -32Q154 7 147 57T140 175Q140 230 159 255T206 291Q176 300 158 320T140 384Q140 455 147 507T154 608Q154 662 139 684T94 713T24 722Q23
725 23 727T22 732Q22 737 24 740T33 744Q107 744 142 717T178 611Q178 557 171 506T164 390Q164 347 183 330T229 308Q231 304 231 300T231 294Q231 287 228 283T219 275Q203 266 191 257T171 229T164 176Q164 116 171 67T178 -36Q178 -81 158 -106T103 -141T23
-151Z" />
<glyph unicode="~" horiz-adv-x="400" d="M274 236Q246 236 226 244T191 264T159 283T122 292Q100 292 83 284T54 266T36 247Q31 240 24 243T14 254Q21 265 35 279T71 305T125 316Q150 316 167 308T200 288T233 269T276 260Q305 260 327 273T363 307Q368 315 375
313T387 301Q378 288 365 273T329 247T274 236Z" />
<glyph unicode="&#xa0;" horiz-adv-x="190" />
<glyph unicode="&#xa1;" horiz-adv-x="182" d="M78 -198V334Q78 338 81 340T90 344T102 345V-191Q102 -194 99 -195T90 -197T78 -198ZM92 448Q79 448 71 457T63 478Q63 492 71 500T92 509Q105 509 112 501T119 478Q119 466 112 457T92 448Z" />
<glyph unicode="&#xa2;" horiz-adv-x="450" d="M264 -10Q229 -10 199 -5T147 22T113 91T101 221Q101 317 117 374T161 461T221 499T283 509Q315 509 341 498T367 479Q367 476 367 472T365 465T361 458Q346 469 331 477T285 485Q257 485 229 476T178 440T141 360T127
217Q127 146 136 105T164 44T208 19T266 13Q298 13 321 25T363 53Q366 49 367 45T369 35Q369 29 355 19T317 -1T264 -10ZM239 -148V3H260V-133Q260 -142 257 -145T239 -148ZM256 498V637Q256 647 260 649T278 652V498H256Z" />
<glyph unicode="&#xa3;" horiz-adv-x="403" d="M108 0Q105 69 103 123T101 226T100 330Q100 414 112 466T146 546T196 584T256 595Q285 595 307 589T342 573T355 556Q355 552 354 547T348 537Q327 554 307 562T253 571Q226 571 203 562T162 528T134 456T124 331Q124
264 126 184T132 26L346 23Q348 20 348 17T349 11Q349 3 339 1T314 -1T290 0H108ZM15 280Q15 297 16 301T25 305H291Q291 289 290 285T281 280H15Z" />
<glyph unicode="&#xa4;" horiz-adv-x="520" d="M258 78Q168 78 118 135T68 294Q68 395 120 452T268 510Q355 510 403 453T452 294Q452 193 401 136T258 78ZM38 51Q27 63 25 67T28 77L116 165L131 144L38 51ZM116 418L20 513Q32 525 36 527T45 524L132 438L116
418ZM475 59L386 148L401 169L500 70Q488 58 484 56T475 59ZM256 102Q338 102 384 153T430 298Q430 387 388 436T269 486Q185 486 138 433T90 285Q90 199 134 151T256 102ZM404 417L390 439L483 531Q494 520 496 516T493 506L404 417Z" />
<glyph unicode="&#xa5;" horiz-adv-x="450" d="M217 267L47 695Q46 698 47 699T54 700T73 700L132 551Q146 516 161 475T190 396T212 335T221 311Q221 311 229 335T252 396T281 474T310 551L365 695Q366 698 367 699T375 700T393 700L225 266L217 267ZM66 184Q66
197 68 201T80 206H221V184H66ZM209 0V301H233V10Q233 5 232 3T226 1T209 0ZM66 340Q66 353 68 357T80 362H194V340H66ZM218 184V206H373Q373 193 371 189T359 184H218ZM247 340V362H372Q372 349 370 345T358 340H247Z" />
<glyph unicode="&#xa6;" horiz-adv-x="224" d="M112 -197Q111 -197 108 -197T100 -195V211Q100 216 102 218T112 221Q114 221 117 221T124 219V-189Q124 -193 122 -195T112 -197ZM112 334Q111 334 108 334T100 336V732Q100 737 102 739T112 742Q114 742 117 742T124
740V342Q124 338 122 336T112 334Z" />
<glyph unicode="&#xa7;" horiz-adv-x="390" d="M253 193L240 209Q270 220 289 248T308 299Q308 328 298 347T267 387Q251 405 224 427T167 473T119 514Q94 539 82 557T70 606Q70 634 86 656T134 691T211 704Q258 704 289 689T325 662Q326 660 326 657Q326 653
324 649T317 642Q296 660 270 670T205 680Q153 680 124 659T94 606Q94 583 104 568T134 532Q150 516 177 495T233 450T280 408Q306 381 319 358T332 300Q332 280 324 260T298 223T253 193ZM181 -4Q134 -4 103 11T67 38Q66 40 66 41T66 43Q66 52 75 58Q96 40 122
30T187 20Q239 20 268 41T298 94Q298 117 288 133T258 168Q242 184 215 206T159 250T112 292Q86 319 73 342T60 400Q60 420 67 439T92 476T135 505L148 489Q118 478 101 451T84 401Q84 373 95 354T125 313Q141 296 169 273T225 227T273 186Q299 161 310 143T322
94Q322 66 306 44T258 9T181 -4Z" />
<glyph unicode="&#xa8;" horiz-adv-x="250" d="M74 614Q64 615 60 622T57 642Q58 656 62 663T76 670Q86 670 90 662T94 640Q93 627 89 621T74 614ZM174 614Q164 615 160 622T157 642Q158 656 162 663T176 670Q186 670 190 662T194 640Q193 627 189 621T174 614Z" />
<glyph unicode="&#xa9;" horiz-adv-x="456" d="M230 321Q187 321 153 329T94 359T56 425T42 539Q42 656 94 708T234 761Q293 761 333 741T394 673T415 539Q415 432 366 377T230 321ZM231 401Q206 401 187 408T157 441T146 525Q146 578 155 609T178 655T208 675T241
680Q258 680 273 674T288 664Q288 662 285 654T280 644Q273 649 266 652T246 656Q229 656 212 648T183 611T171 525Q171 480 179 459T201 432T234 425Q248 425 260 430T281 441Q283 439 286 433T289 424Q289 420 272 411T231 401ZM222 345Q275 345 313 367T371
434T392 542Q392 618 373 660T319 720T236 737Q159 737 112 691T65 533Q65 460 83 419T137 362T222 345Z" />
<glyph unicode="&#xaa;" horiz-adv-x="349" d="M173 289Q144 289 118 296T76 329T60 407Q60 460 78 485T125 517T187 525Q208 525 229 522T265 513V615Q265 648 252 663T219 682T180 686Q143 686 115 677T72 658Q67 661 66 669T68 681Q83 691 113 700T188 710Q213
710 236 703T274 676T289 620V317Q279 311 247 300T173 289ZM180 312Q205 312 229 318T265 331V489Q250 494 229 497T193 501Q162 501 137 496T98 471T83 403Q83 364 96 345T131 319T180 312Z" />
<glyph unicode="&#xab;" horiz-adv-x="419" d="M200 0Q200 0 189 17T159 62T120 121T82 182T52 232T40 257Q40 261 51 280T79 327T116 384T152 440T181 483T192 500Q197 500 200 497T206 491T208 488Q208 485 198 467T171 422T137 368T102 314T76 273T65 257Q65
257 75 241T103 198T139 141T175 83T202 38T213 18Q213 18 211 14T207 5T200 0ZM351 20Q351 20 340 35T310 75T271 128T233 182T203 227T191 250Q191 254 202 272T230 316T267 371T303 424T332 464T343 480Q348 480 351 477T357 471T359 468Q359 464 345 441T309
386T267 323T231 271T216 250Q216 250 231 230T268 178T312 116T349 63T364 38Q364 38 362 34T358 25T351 20Z" />
<glyph unicode="&#xac;" horiz-adv-x="400" d="M35 259Q33 265 33 271Q33 276 37 280T45 284H355V259H35ZM342 109Q337 109 334 113T330 121V284H355V111Q347 109 342 109Z" />
<glyph unicode="&#xad;" horiz-adv-x="304" d="M50 269Q50 286 51 290T60 294H254Q254 278 253 274T244 269H50Z" />
<glyph unicode="&#xae;" horiz-adv-x="456" d="M230 321Q187 321 153 329T94 359T56 425T42 539Q42 656 94 708T234 761Q293 761 333 741T394 673T415 539Q415 432 366 377T230 321ZM166 406V679Q166 679 166 681T171 683H174Q177 683 183 681T190 679V414Q190
407 183 407T166 406ZM294 406Q286 451 272 478T246 517T234 530Q234 530 234 532T235 535L240 536Q242 536 249 538T257 540Q257 540 270 525T297 482T318 414Q318 412 317 410T312 406Q311 406 304 406T294 406ZM222 345Q275 345 313 367T371 434T392 542Q392
618 373 660T319 720T236 737Q159 737 112 691T65 533Q65 460 83 419T137 362T222 345ZM221 550Q256 550 272 566T289 609Q289 631 276 646T222 661Q200 661 190 661T180 661V550Q180 550 190 550T211 550T221 550ZM176 529Q169 529 170 531T172 534V676Q172 679
172 681T173 683H227Q276 683 294 661T312 611Q312 571 289 550T223 529H176Z" />
<glyph unicode="&#xaf;" horiz-adv-x="250" d="M5 623Q4 627 4 630T4 636Q5 642 7 645T15 648H245Q246 644 246 641T246 635Q245 629 243 626T235 623H5Z" />
<glyph unicode="&#xb0;" horiz-adv-x="386" d="M192 573Q157 573 135 588T113 656Q113 699 136 719T199 740Q238 740 257 722T277 656Q277 616 255 595T192 573ZM192 597Q221 597 237 611T253 657Q253 691 240 703T200 716Q170 716 154 703T137 653Q137 622 151
610T192 597Z" />
<glyph unicode="&#xb1;" horiz-adv-x="450" d="M51 269Q51 286 52 290T61 294H401Q401 278 400 274T391 269H51ZM214 107V447Q214 455 218 456T239 457V117Q239 110 235 109T214 107ZM51 10Q51 27 52 31T61 35H401Q401 19 400 15T391 10H51Z" />
<glyph unicode="&#xb2;" horiz-adv-x="422" d="M67 289Q66 293 66 296T65 302Q65 307 66 312T72 322Q109 360 150 394T229 462T289 529T312 602Q312 624 305 643T278 674T218 686Q168 686 138 668T89 633Q83 637 82 641T80 650Q80 657 99 671T150 698T219 710Q268
710 293 695T327 654T336 600Q336 559 313 523T252 453T173 384T97 313H354Q357 307 357 301Q357 289 347 289H67Z" />
<glyph unicode="&#xb3;" horiz-adv-x="449" d="M198 279Q154 279 124 289T83 311Q80 316 80 320Q80 328 90 335Q110 319 135 311T205 303Q268 303 306 331T345 409Q345 444 322 467T264 495Q244 498 218 499T169 500Q168 502 168 505T167 511Q167 515 169 519T178
524Q202 524 227 523T266 519Q313 512 341 484T369 413Q369 370 349 340T290 295T198 279ZM274 506L245 512Q291 538 308 563T326 618Q326 632 318 647T289 674T229 686Q186 686 152 673T95 640Q88 646 89 654T94 665Q109 679 142 694T228 710Q276 710 302 696T339
661T350 619Q350 583 330 554T274 506Z" />
<glyph unicode="&#xb4;" horiz-adv-x="252" d="M60 579Q60 579 58 583T53 591T50 595Q75 618 99 639T144 676T177 702T189 712Q195 712 198 701T202 689Q202 689 191 680T160 654T115 619T60 579Z" />
<glyph unicode="&#xb5;" horiz-adv-x="447" d="M83 -194Q80 -194 78 -194T73 -192V494Q73 499 75 501T85 504Q87 504 90 504T97 502V128Q97 66 131 40T221 14Q261 14 292 21T348 39V493Q348 498 350 501T360 504Q362 504 365 504T372 502V23Q342 10 302 0T222
-10Q133 -10 97 39V-186Q97 -191 93 -192T83 -194Z" />
<glyph unicode="&#xb6;" horiz-adv-x="553" d="M350 -3Q347 -3 345 -3T340 -1V210Q321 200 291 195T238 189Q204 189 172 200T113 237T70 309T54 425Q54 513 77 576T144 674T253 709Q292 709 316 703T364 684V7Q364 0 361 -1T350 -3ZM241 213Q260 212 290 218T340
236V668Q330 674 308 679T251 685Q169 685 124 617T78 425Q78 341 102 295T164 232T241 213ZM466 -1Q465 -1 462 -1T454 1V679Q454 684 456 686T466 689Q468 689 471 689T478 687V7Q478 3 476 1T466 -1Z" />
<glyph unicode="&#xb7;" horiz-adv-x="194" d="M92 239Q79 239 72 248T65 270Q65 282 72 291T92 300Q105 300 113 291T121 270Q121 257 113 248T92 239Z" />
<glyph unicode="&#xb8;" horiz-adv-x="250" d="M129 -177Q110 -177 95 -174T80 -171Q80 -171 80 -167T82 -157T87 -148Q92 -143 103 -148T129 -154Q143 -154 155 -146T167 -116Q167 -92 156 -86T130 -80Q118 -80 107 -82T95 -85L114 3H139L125 -61Q125 -61 130
-60T144 -59Q161 -59 176 -70T191 -110Q191 -138 181 -152T157 -172T129 -177Z" />
<glyph unicode="&#xb9;" horiz-adv-x="438" d="M82 289Q81 291 81 293T80 299Q80 306 82 309T90 313H226V683L86 652Q85 654 84 656T83 664Q83 668 85 672T94 677Q118 683 150 691T208 704T238 710Q240 710 243 710T250 708V313H357Q358 309 358 306T358 301Q358
296 356 293T349 289H82Z" />
<glyph unicode="&#xba;" horiz-adv-x="360" d="M176 290Q139 290 111 305T66 366T50 498Q50 611 89 660T186 710Q227 710 254 692T296 628T310 498Q310 393 275 342T176 290ZM176 314Q228 314 257 361T287 502Q287 575 275 615T241 670T188 686Q136 686 105 643T74
493Q74 422 86 383T121 329T176 314Z" />
<glyph unicode="&#xbb;" horiz-adv-x="415" d="M216 0Q216 0 214 0T209 3T204 8T202 17Q202 19 212 37T240 82T276 140T312 196T339 240T350 257Q350 257 340 272T313 313T279 367T244 422T218 466T207 488Q207 491 209 493T215 497T220 499T223 500Q223 500 234
484T262 441T299 385T335 327T364 280T375 257Q375 253 364 233T334 183T296 122T257 63T228 18T216 0ZM69 20Q69 20 66 21T59 26T55 37Q55 39 70 61T107 115T151 177T188 229T203 250Q203 250 189 270T153 322T111 385T75 440T60 468Q60 473 64 475T72 479T76
480Q76 480 87 465T115 424T152 371T188 317T217 272T228 250Q228 246 217 228T187 183T149 128T110 76T81 36T69 20Z" />
<glyph unicode="&#xbc;" horiz-adv-x="1020" d="M72 289Q71 291 71 293T70 299Q70 306 72 309T80 313H216V683L76 652Q75 654 74 656T73 664Q73 668 75 672T84 677Q108 683 140 691T198 704T228 710Q230 710 233 710T240 708V313H347Q348 309 348 306T348 301Q348
296 346 293T339 289H72ZM303 -9Q298 -9 294 -5T289 5L761 705Q763 707 765 708T769 710Q773 710 777 707T783 697L310 -6Q309 -7 307 -8T303 -9ZM885 -4Q879 -4 876 -3V79H671Q670 81 670 83T669 87Q669 92 677 116Q688 149 709 189T759 272T817 352T876 416Q879
419 882 420T890 421Q893 421 896 421T900 419V103H983Q984 101 984 98T985 90Q985 87 984 83T979 79H900V8Q900 -4 885 -4ZM700 103H876V380Q856 361 831 330T780 261T733 183T700 103Z" />
<glyph unicode="&#xbd;" horiz-adv-x="1016" d="M72 289Q71 291 71 293T70 299Q70 306 72 309T80 313H216V683L76 652Q75 654 74 656T73 664Q73 668 75 672T84 677Q108 683 140 691T198 704T228 710Q230 710 233 710T240 708V313H347Q348 309 348 306T348 301Q348
296 346 293T339 289H72ZM303 -9Q298 -9 294 -5T289 5L761 705Q763 707 765 708T769 710Q773 710 777 707T783 697L310 -6Q309 -7 307 -8T303 -9ZM671 0Q670 4 670 7T669 13Q669 18 670 23T676 33Q713 71 754 105T833 173T893 240T916 313Q916 335 909 354T882
385T822 397Q772 397 742 379T693 344Q687 348 686 352T684 361Q684 368 703 382T754 409T823 421Q872 421 897 406T931 365T940 311Q940 270 917 234T856 164T777 95T701 24H958Q961 18 961 12Q961 0 951 0H671Z" />
<glyph unicode="&#xbe;" horiz-adv-x="1031" d="M188 279Q144 279 114 289T73 311Q70 316 70 320Q70 328 80 335Q100 319 125 311T195 303Q258 303 296 331T335 409Q335 444 312 467T254 495Q234 498 208 499T159 500Q158 502 158 505T157 511Q157 515 159 519T168
524Q192 524 217 523T256 519Q303 512 331 484T359 413Q359 370 339 340T280 295T188 279ZM264 506L235 512Q281 538 298 563T316 618Q316 632 308 647T279 674T219 686Q176 686 142 673T85 640Q78 646 79 654T84 665Q99 679 132 694T218 710Q266 710 292 696T329
661T340 619Q340 583 320 554T264 506ZM314 -9Q309 -9 305 -5T300 5L772 705Q774 707 776 708T780 710Q784 710 788 707T794 697L321 -6Q320 -7 318 -8T314 -9ZM896 -4Q890 -4 887 -3V79H682Q681 81 681 83T680 87Q680 92 688 116Q699 149 720 189T770 272T828
352T887 416Q890 419 893 420T901 421Q904 421 907 421T911 419V103H994Q995 101 995 98T996 90Q996 87 995 83T990 79H911V8Q911 -4 896 -4ZM711 103H887V380Q867 361 842 330T791 261T744 183T711 103Z" />
<glyph unicode="&#xbf;" horiz-adv-x="296" d="M154 -194Q132 -194 108 -189T62 -168T27 -125T14 -50Q14 -8 28 27T64 91T105 144T138 190Q161 228 164 259T163 310T159 330Q161 333 164 333T172 334T181 332Q181 332 184 320T189 287T184 238T159 178Q145 155
125 131T85 80T52 21T38 -51Q38 -93 51 -117T83 -153T121 -167T153 -170Q184 -170 212 -162T264 -136Q264 -136 264 -140T265 -154Q265 -160 250 -169T210 -186T154 -194ZM168 446Q155 446 147 455T139 476Q139 490 147 498T168 507Q181 507 188 499T195 476Q195
464 188 455T168 446Z" />
<glyph unicode="&#xc0;" horiz-adv-x="436" d="M24 -1Q23 -1 19 -1T10 0L210 703Q210 705 215 705Q218 705 220 705T224 703L425 10Q427 4 425 2T417 -1Q414 -1 410 -1T401 0L268 470Q256 516 245 557T226 629T217 669Q216 659 209 629T190 558T166 470L38 6Q37
1 33 0T24 -1ZM92 212V236H355V212H92ZM284 779Q256 799 230 818T185 854T154 879T142 889Q142 889 145 900T155 912Q155 912 167 903T199 877T244 839T294 795Q294 795 292 791T287 783T284 779Z" />
<glyph unicode="&#xc1;" horiz-adv-x="436" d="M24 -1Q23 -1 19 -1T10 0L210 703Q210 705 215 705Q218 705 220 705T224 703L425 10Q427 4 425 2T417 -1Q414 -1 410 -1T401 0L268 470Q256 516 245 557T226 629T217 669Q216 659 209 629T190 558T166 470L38 6Q37
1 33 0T24 -1ZM92 212V236H355V212H92ZM152 779Q152 779 150 783T145 791T142 795Q167 818 191 839T236 876T269 902T281 912Q287 912 290 901T294 889Q294 889 283 880T252 854T207 819T152 779Z" />
<glyph unicode="&#xc2;" horiz-adv-x="436" d="M24 -1Q23 -1 19 -1T10 0L210 703Q210 705 215 705Q218 705 220 705T224 703L425 10Q427 4 425 2T417 -1Q414 -1 410 -1T401 0L268 470Q256 516 245 557T226 629T217 669Q216 659 209 629T190 558T166 470L38 6Q37
1 33 0T24 -1ZM92 212V236H355V212H92ZM310 780Q310 780 297 794T266 827T235 860T221 875Q221 875 207 861T175 828T141 795T123 781Q113 781 109 787T104 794L214 897Q216 899 222 899Q225 899 228 898T236 892Q236 892 250 878T284 844T317 811T332 796Q332
796 326 788T310 780Z" />
<glyph unicode="&#xc3;" horiz-adv-x="436" d="M24 -1Q23 -1 19 -1T10 0L210 703Q210 705 215 705Q218 705 220 705T224 703L425 10Q427 4 425 2T417 -1Q414 -1 410 -1T401 0L268 470Q256 516 245 557T226 629T217 669Q216 659 209 629T190 558T166 470L38 6Q37
1 33 0T24 -1ZM92 212V236H355V212H92ZM266 794Q243 794 229 803T205 823T186 844T164 853Q143 853 130 840T109 814T96 800Q93 800 89 803T83 810T80 814Q103 852 123 863T170 874Q188 874 199 866T218 847T238 828T266 819Q294 819 308 832T330 858T341 871Q346
871 349 868T354 860T356 856Q351 846 344 835T327 815T302 800T266 794Z" />
<glyph unicode="&#xc4;" horiz-adv-x="436" d="M24 -1Q23 -1 19 -1T10 0L210 703Q210 705 215 705Q218 705 220 705T224 703L425 10Q427 4 425 2T417 -1Q414 -1 410 -1T401 0L268 470Q256 516 245 557T226 629T217 669Q216 659 209 629T190 558T166 470L38 6Q37
1 33 0T24 -1ZM92 212V236H355V212H92ZM167 814Q157 815 153 822T150 842Q151 856 155 863T169 870Q179 870 183 862T187 840Q186 827 182 821T167 814ZM267 814Q257 815 253 822T250 842Q251 856 255 863T269 870Q279 870 283 862T287 840Q286 827 282 821T267
814Z" />
<glyph unicode="&#xc5;" horiz-adv-x="436" d="M24 -1Q23 -1 19 -1T10 0L210 703Q210 705 215 705Q218 705 220 705T224 703L425 10Q427 4 425 2T417 -1Q414 -1 410 -1T401 0L268 470Q256 516 245 557T226 629T217 669Q216 659 209 629T190 558T166 470L38 6Q37
1 33 0T24 -1ZM92 212V236H355V212H92ZM215 767Q180 767 158 785T136 850Q136 893 159 913T222 934Q261 934 280 916T300 850Q300 810 278 789T215 767ZM215 791Q244 791 260 805T276 851Q276 885 263 897T223 910Q193 910 177 897T160 847Q160 821 174 806T215
791Z" />
<glyph unicode="&#xc6;" horiz-adv-x="675" d="M33 -1Q32 -1 28 -1T19 0L388 694Q389 696 391 698T396 700H410Q406 691 394 666T364 606T328 535T292 466L47 6Q45 2 42 1T33 -1ZM147 212L157 236H400V212H147ZM389 0V690Q389 690 390 695T399 700H638Q638 690
638 685T637 678T632 676H413V24H640Q640 14 640 9T638 2T632 0H389ZM405 372V396H618Q618 381 617 377T610 372H405Z" />
<glyph unicode="&#xc7;" horiz-adv-x="369" d="M213 -9Q194 -9 172 -6T128 13T88 63T59 157T48 311Q48 421 59 493T89 609T133 674T185 702T239 709Q267 709 287 701T319 682T331 663Q331 659 329 654T324 647Q321 651 309 660T278 677T236 686Q213 686 190 680T146
652T109 590T83 479T73 306Q73 209 86 151T119 64T165 26T214 16Q254 16 287 36T332 76Q334 72 336 68T339 58Q339 47 322 31T277 3T213 -9ZM224 -177Q205 -177 190 -174T175 -171Q175 -171 175 -167T177 -157T182 -148Q187 -143 198 -148T224 -154Q238 -154 250
-146T262 -116Q262 -92 251 -86T225 -80Q213 -80 202 -82T190 -85L209 3H234L220 -61Q220 -61 225 -60T239 -59Q256 -59 271 -70T286 -110Q286 -138 276 -152T252 -172T224 -177Z" />
<glyph unicode="&#xc8;" horiz-adv-x="357" d="M71 0V690Q71 690 72 695T81 700H320Q320 690 320 685T319 678T314 676H95V24H322Q322 14 322 9T320 2T314 0H71ZM87 372V396H300Q300 381 299 377T292 372H87ZM263 779Q235 799 209 818T164 854T133 879T121 889Q121
889 124 900T134 912Q134 912 146 903T178 877T223 839T273 795Q273 795 271 791T266 783T263 779Z" />
<glyph unicode="&#xc9;" horiz-adv-x="357" d="M71 0V690Q71 690 72 695T81 700H320Q320 690 320 685T319 678T314 676H95V24H322Q322 14 322 9T320 2T314 0H71ZM87 372V396H300Q300 381 299 377T292 372H87ZM131 779Q131 779 129 783T124 791T121 795Q146 818
170 839T215 876T248 902T260 912Q266 912 269 901T273 889Q273 889 262 880T231 854T186 819T131 779Z" />
<glyph unicode="&#xca;" horiz-adv-x="357" d="M71 0V690Q71 690 72 695T81 700H320Q320 690 320 685T319 678T314 676H95V24H322Q322 14 322 9T320 2T314 0H71ZM87 372V396H300Q300 381 299 377T292 372H87ZM289 780Q289 780 276 794T245 827T214 860T200 875Q200
875 186 861T154 828T120 795T102 781Q92 781 88 787T83 794L193 897Q195 899 201 899Q204 899 207 898T215 892Q215 892 229 878T263 844T296 811T311 796Q311 796 305 788T289 780Z" />
<glyph unicode="&#xcb;" horiz-adv-x="357" d="M71 0V690Q71 690 72 695T81 700H320Q320 690 320 685T319 678T314 676H95V24H322Q322 14 322 9T320 2T314 0H71ZM87 372V396H300Q300 381 299 377T292 372H87ZM146 814Q136 815 132 822T129 842Q130 856 134 863T148
870Q158 870 162 862T166 840Q165 827 161 821T146 814ZM246 814Q236 815 232 822T229 842Q230 856 234 863T248 870Q258 870 262 862T266 840Q265 827 261 821T246 814Z" />
<glyph unicode="&#xcc;" horiz-adv-x="161" d="M68 0V684Q68 692 69 695T75 699T93 700V10Q93 5 92 3T85 1T68 0ZM147 779Q119 799 93 818T48 854T17 879T5 889Q5 889 8 900T18 912Q18 912 30 903T62 877T107 839T157 795Q157 795 155 791T150 783T147 779Z" />
<glyph unicode="&#xcd;" horiz-adv-x="161" d="M68 0V684Q68 692 69 695T75 699T93 700V10Q93 5 92 3T85 1T68 0ZM15 779Q15 779 13 783T8 791T5 795Q30 818 54 839T99 876T132 902T144 912Q150 912 153 901T157 889Q157 889 146 880T115 854T70 819T15 779Z" />
<glyph unicode="&#xce;" horiz-adv-x="161" d="M68 0V684Q68 692 69 695T75 699T93 700V10Q93 5 92 3T85 1T68 0ZM173 780Q173 780 160 794T129 827T98 860T84 875Q84 875 70 861T38 828T4 795T-14 781Q-24 781 -28 787T-33 794L77 897Q79 899 85 899Q88 899 91
898T99 892Q99 892 113 878T147 844T180 811T195 796Q195 796 189 788T173 780Z" />
<glyph unicode="&#xcf;" horiz-adv-x="161" d="M68 0V684Q68 692 69 695T75 699T93 700V10Q93 5 92 3T85 1T68 0ZM30 814Q20 815 16 822T13 842Q14 856 18 863T32 870Q42 870 46 862T50 840Q49 827 45 821T30 814ZM130 814Q120 815 116 822T113 842Q114 856 118
863T132 870Q142 870 146 862T150 840Q149 827 145 821T130 814Z" />
<glyph unicode="&#xd0;" horiz-adv-x="437" d="M70 0V684Q70 691 74 695T94 700H195Q242 700 278 682T339 626T376 529T389 388Q389 260 372 183T326 67T261 14T187 0H70ZM20 359Q20 376 21 380T30 384H227Q227 368 226 364T217 359H20ZM94 24H186Q220 24 252
36T309 86T350 196T365 388Q365 462 355 516T324 605T269 658T190 676H94V24Z" />
<glyph unicode="&#xd1;" horiz-adv-x="470" d="M380 0L249 288Q249 288 237 315T206 385T165 476T124 567T92 637T80 664L71 683L78 700H90L218 417Q218 417 230 391T261 322T301 234T341 145T372 77T384 50L399 17L392 0H380ZM68 0V690Q68 700 78 700L92 690V669Q92
669 92 639T92 563T92 463T92 364T92 287T92 257V10Q92 5 91 3T85 1T68 0ZM392 0L378 10V37Q378 37 378 67T378 144T378 243T378 343T378 420T378 450V690Q378 695 379 697T385 699T402 700V10Q402 0 392 0ZM283 794Q260 794 246 803T222 823T203 844T181 853Q160
853 147 840T126 814T113 800Q110 800 106 803T100 810T97 814Q120 852 140 863T187 874Q205 874 216 866T235 847T255 828T283 819Q311 819 325 832T347 858T358 871Q363 871 366 868T371 860T373 856Q368 846 361 835T344 815T319 800T283 794Z" />
<glyph unicode="&#xd2;" horiz-adv-x="466" d="M230 -10Q182 -10 148 8T92 69T59 182T48 355Q48 482 69 560T133 674T241 710Q289 710 323 691T378 630T408 521T418 355Q418 223 399 143T338 27T230 -10ZM229 14Q287 14 323 47T376 155T394 358Q394 482 378 553T328
655T240 686Q184 686 147 653T91 545T72 343Q72 222 88 150T140 46T229 14ZM299 779Q271 799 245 818T200 854T169 879T157 889Q157 889 160 900T170 912Q170 912 182 903T214 877T259 839T309 795Q309 795 307 791T302 783T299 779Z" />
<glyph unicode="&#xd3;" horiz-adv-x="466" d="M230 -10Q182 -10 148 8T92 69T59 182T48 355Q48 482 69 560T133 674T241 710Q289 710 323 691T378 630T408 521T418 355Q418 223 399 143T338 27T230 -10ZM229 14Q287 14 323 47T376 155T394 358Q394 482 378 553T328
655T240 686Q184 686 147 653T91 545T72 343Q72 222 88 150T140 46T229 14ZM167 779Q167 779 165 783T160 791T157 795Q182 818 206 839T251 876T284 902T296 912Q302 912 305 901T309 889Q309 889 298 880T267 854T222 819T167 779Z" />
<glyph unicode="&#xd4;" horiz-adv-x="466" d="M230 -10Q182 -10 148 8T92 69T59 182T48 355Q48 482 69 560T133 674T241 710Q289 710 323 691T378 630T408 521T418 355Q418 223 399 143T338 27T230 -10ZM229 14Q287 14 323 47T376 155T394 358Q394 482 378 553T328
655T240 686Q184 686 147 653T91 545T72 343Q72 222 88 150T140 46T229 14ZM325 780Q325 780 312 794T281 827T250 860T236 875Q236 875 222 861T190 828T156 795T138 781Q128 781 124 787T119 794L229 897Q231 899 237 899Q240 899 243 898T251 892Q251 892 265
878T299 844T332 811T347 796Q347 796 341 788T325 780Z" />
<glyph unicode="&#xd5;" horiz-adv-x="466" d="M230 -10Q182 -10 148 8T92 69T59 182T48 355Q48 482 69 560T133 674T241 710Q289 710 323 691T378 630T408 521T418 355Q418 223 399 143T338 27T230 -10ZM229 14Q287 14 323 47T376 155T394 358Q394 482 378 553T328
655T240 686Q184 686 147 653T91 545T72 343Q72 222 88 150T140 46T229 14ZM281 794Q258 794 244 803T220 823T201 844T179 853Q158 853 145 840T124 814T111 800Q108 800 104 803T98 810T95 814Q118 852 138 863T185 874Q203 874 214 866T233 847T253 828T281
819Q309 819 323 832T345 858T356 871Q361 871 364 868T369 860T371 856Q366 846 359 835T342 815T317 800T281 794Z" />
<glyph unicode="&#xd6;" horiz-adv-x="466" d="M230 -10Q182 -10 148 8T92 69T59 182T48 355Q48 482 69 560T133 674T241 710Q289 710 323 691T378 630T408 521T418 355Q418 223 399 143T338 27T230 -10ZM229 14Q287 14 323 47T376 155T394 358Q394 482 378 553T328
655T240 686Q184 686 147 653T91 545T72 343Q72 222 88 150T140 46T229 14ZM182 814Q172 815 168 822T165 842Q166 856 170 863T184 870Q194 870 198 862T202 840Q201 827 197 821T182 814ZM282 814Q272 815 268 822T265 842Q266 856 270 863T284 870Q294 870 298
862T302 840Q301 827 297 821T282 814Z" />
<glyph unicode="&#xd7;" horiz-adv-x="450" d="M316 156L106 397Q118 408 122 410T131 407L341 167Q330 155 326 153T316 156ZM132 156Q126 151 122 153T107 167L317 407Q322 412 326 410T342 397L132 156Z" />
<glyph unicode="&#xd8;" horiz-adv-x="466" d="M239 710Q304 710 343 676T400 563T418 355Q418 223 399 143T338 27T230 -10Q182 -10 148 8T92 69T59 182T48 355Q48 482 68 560T131 674T239 710ZM240 686Q184 686 147 653T91 545T72 343Q72 222 88 150T140 46T229
14Q272 14 303 32T355 90T384 197T394 358Q394 482 378 553T328 655T240 686ZM101 60Q101 60 105 60T114 57T120 50Q120 50 116 40T106 17T96 -7T92 -17Q92 -17 84 -17T73 -7Q73 -7 77 3T87 26T97 50T101 60ZM104 60L343 656Q343 656 347 656T356 653T362 646Q362
646 349 614T315 528T268 412T218 285T171 168T136 83T123 50Q123 50 119 50T110 52T104 60ZM364 644Q364 644 362 644T356 644T349 647T345 654Q345 654 347 660T354 677T362 696T368 712T371 719Q371 719 375 719T384 716T390 709Q390 709 388 703T381 687T373
667T367 651T364 644Z" />
<glyph unicode="&#xd9;" horiz-adv-x="484" d="M250 -10Q187 -10 151 9T97 61T74 137T68 227V690Q68 695 69 697T75 699T92 700V227Q92 186 96 148T117 79T164 32T250 14Q293 14 333 23T392 41V691Q392 696 393 697T400 699T416 700V23Q396 10 348 0T250 -10ZM308
779Q280 799 254 818T209 854T178 879T166 889Q166 889 169 900T179 912Q179 912 191 903T223 877T268 839T318 795Q318 795 316 791T311 783T308 779Z" />
<glyph unicode="&#xda;" horiz-adv-x="484" d="M250 -10Q187 -10 151 9T97 61T74 137T68 227V690Q68 695 69 697T75 699T92 700V227Q92 186 96 148T117 79T164 32T250 14Q293 14 333 23T392 41V691Q392 696 393 697T400 699T416 700V23Q396 10 348 0T250 -10ZM176
779Q176 779 174 783T169 791T166 795Q191 818 215 839T260 876T293 902T305 912Q311 912 314 901T318 889Q318 889 307 880T276 854T231 819T176 779Z" />
<glyph unicode="&#xdb;" horiz-adv-x="484" d="M250 -10Q187 -10 151 9T97 61T74 137T68 227V690Q68 695 69 697T75 699T92 700V227Q92 186 96 148T117 79T164 32T250 14Q293 14 333 23T392 41V691Q392 696 393 697T400 699T416 700V23Q396 10 348 0T250 -10ZM334
780Q334 780 321 794T290 827T259 860T245 875Q245 875 231 861T199 828T165 795T147 781Q137 781 133 787T128 794L238 897Q240 899 246 899Q249 899 252 898T260 892Q260 892 274 878T308 844T341 811T356 796Q356 796 350 788T334 780Z" />
<glyph unicode="&#xdc;" horiz-adv-x="484" d="M250 -10Q187 -10 151 9T97 61T74 137T68 227V690Q68 695 69 697T75 699T92 700V227Q92 186 96 148T117 79T164 32T250 14Q293 14 333 23T392 41V691Q392 696 393 697T400 699T416 700V23Q396 10 348 0T250 -10ZM191
814Q181 815 177 822T174 842Q175 856 179 863T193 870Q203 870 207 862T211 840Q210 827 206 821T191 814ZM291 814Q281 815 277 822T274 842Q275 856 279 863T293 870Q303 870 307 862T311 840Q310 827 306 821T291 814Z" />
<glyph unicode="&#xdd;" horiz-adv-x="357" d="M184 266L176 267L6 695Q5 698 6 699T13 700T32 700L91 551Q105 516 120 475T149 396T171 335T180 311Q180 311 188 335T211 396T240 474T269 551L324 695Q325 698 326 699T334 700T352 700L184 266ZM168 0V301H192V10Q192
5 191 3T185 1T168 0ZM113 779Q113 779 111 783T106 791T103 795Q128 818 152 839T197 876T230 902T242 912Q248 912 251 901T255 889Q255 889 244 880T213 854T168 819T113 779Z" />
<glyph unicode="&#xde;" horiz-adv-x="381" d="M68 0V692Q68 698 73 699T85 700H92V559H187Q250 559 286 533T336 465T351 377Q351 326 340 288T307 223T253 183T179 169H92V10Q92 5 91 3T85 1T68 0ZM178 193Q230 193 262 216T311 280T327 377Q327 419 315 455T271
513T182 535Q160 535 138 535T92 535V193Q114 193 135 193T178 193Z" />
<glyph unicode="&#xdf;" horiz-adv-x="477" d="M78 -8Q71 -8 67 -5T62 -1Q62 -1 65 7T68 30V549Q68 636 110 670T220 704Q273 704 309 690T367 653T398 607T408 564Q408 536 393 517T355 483T310 455T272 426T256 388Q256 364 276 345T327 307T386 265T436 211T457
133Q457 61 415 26T305 -9Q251 -9 220 7T189 31Q189 38 193 44T198 50Q218 31 243 23T306 14Q358 14 396 41T434 131Q434 172 414 201T363 252T303 294T253 336T232 387Q232 414 247 433T285 466T330 493T368 523T384 563Q384 588 368 615T317 661T224 681Q159
681 126 648T92 533V8Q92 1 89 -3T78 -8Z" />
<glyph unicode="&#xe0;" horiz-adv-x="383" d="M190 -10Q163 -11 138 -7T91 11T58 54T45 135Q45 189 59 221T97 269T151 291T212 297Q238 297 261 295T303 287Q303 287 303 305T303 347T303 385Q303 428 290 449T255 478T204 486Q147 486 106 478T48 460Q46 464
45 466T44 473Q44 478 45 481T49 486Q66 495 111 502T209 510Q265 510 296 484T327 389V323Q327 266 326 214T324 115T321 28Q309 21 278 6T190 -10ZM197 14Q231 14 259 24T297 43Q299 70 300 107T302 185T303 264Q284 269 260 272T217 275Q189 275 163 271T115
254T82 212T69 136Q69 91 79 66T108 30T150 17T197 14ZM251 579Q223 599 197 618T152 654T121 679T109 689Q109 689 112 700T122 712Q122 712 134 703T166 677T211 639T261 595Q261 595 259 591T254 583T251 579Z" />
<glyph unicode="&#xe1;" horiz-adv-x="383" d="M190 -10Q163 -11 138 -7T91 11T58 54T45 135Q45 189 59 221T97 269T151 291T212 297Q238 297 261 295T303 287Q303 287 303 305T303 347T303 385Q303 428 290 449T255 478T204 486Q147 486 106 478T48 460Q46 464
45 466T44 473Q44 478 45 481T49 486Q66 495 111 502T209 510Q265 510 296 484T327 389V323Q327 266 326 214T324 115T321 28Q309 21 278 6T190 -10ZM197 14Q231 14 259 24T297 43Q299 70 300 107T302 185T303 264Q284 269 260 272T217 275Q189 275 163 271T115
254T82 212T69 136Q69 91 79 66T108 30T150 17T197 14ZM119 579Q119 579 117 583T112 591T109 595Q134 618 158 639T203 676T236 702T248 712Q254 712 257 701T261 689Q261 689 250 680T219 654T174 619T119 579Z" />
<glyph unicode="&#xe2;" horiz-adv-x="383" d="M190 -10Q163 -11 138 -7T91 11T58 54T45 135Q45 189 59 221T97 269T151 291T212 297Q238 297 261 295T303 287Q303 287 303 305T303 347T303 385Q303 428 290 449T255 478T204 486Q147 486 106 478T48 460Q46 464
45 466T44 473Q44 478 45 481T49 486Q66 495 111 502T209 510Q265 510 296 484T327 389V323Q327 266 326 214T324 115T321 28Q309 21 278 6T190 -10ZM197 14Q231 14 259 24T297 43Q299 70 300 107T302 185T303 264Q284 269 260 272T217 275Q189 275 163 271T115
254T82 212T69 136Q69 91 79 66T108 30T150 17T197 14ZM277 580Q277 580 264 594T233 627T202 660T188 675Q188 675 174 661T142 628T108 595T90 581Q80 581 76 587T71 594L181 697Q183 699 189 699Q192 699 195 698T203 692Q203 692 217 678T251 644T284 611T299
596Q299 596 293 588T277 580Z" />
<glyph unicode="&#xe3;" horiz-adv-x="383" d="M190 -10Q163 -11 138 -7T91 11T58 54T45 135Q45 189 59 221T97 269T151 291T212 297Q238 297 261 295T303 287Q303 287 303 305T303 347T303 385Q303 428 290 449T255 478T204 486Q147 486 106 478T48 460Q46 464
45 466T44 473Q44 478 45 481T49 486Q66 495 111 502T209 510Q265 510 296 484T327 389V323Q327 266 326 214T324 115T321 28Q309 21 278 6T190 -10ZM197 14Q231 14 259 24T297 43Q299 70 300 107T302 185T303 264Q284 269 260 272T217 275Q189 275 163 271T115
254T82 212T69 136Q69 91 79 66T108 30T150 17T197 14ZM233 594Q210 594 196 603T172 623T153 644T131 653Q110 653 97 640T76 614T63 600Q60 600 56 603T50 610T47 614Q70 652 90 663T137 674Q155 674 166 666T185 647T205 628T233 619Q261 619 275 632T297 658T308
671Q313 671 316 668T321 660T323 656Q318 646 311 635T294 615T269 600T233 594Z" />
<glyph unicode="&#xe4;" horiz-adv-x="383" d="M190 -10Q163 -11 138 -7T91 11T58 54T45 135Q45 189 59 221T97 269T151 291T212 297Q238 297 261 295T303 287Q303 287 303 305T303 347T303 385Q303 428 290 449T255 478T204 486Q147 486 106 478T48 460Q46 464
45 466T44 473Q44 478 45 481T49 486Q66 495 111 502T209 510Q265 510 296 484T327 389V323Q327 266 326 214T324 115T321 28Q309 21 278 6T190 -10ZM197 14Q231 14 259 24T297 43Q299 70 300 107T302 185T303 264Q284 269 260 272T217 275Q189 275 163 271T115
254T82 212T69 136Q69 91 79 66T108 30T150 17T197 14ZM134 614Q124 615 120 622T117 642Q118 656 122 663T136 670Q146 670 150 662T154 640Q153 627 149 621T134 614ZM234 614Q224 615 220 622T217 642Q218 656 222 663T236 670Q246 670 250 662T254 640Q253
627 249 621T234 614Z" />
<glyph unicode="&#xe5;" horiz-adv-x="383" d="M190 -10Q163 -11 138 -7T91 11T58 54T45 135Q45 189 59 221T97 269T151 291T212 297Q238 297 261 295T303 287Q303 287 303 305T303 347T303 385Q303 428 290 449T255 478T204 486Q147 486 106 478T48 460Q46 464
45 466T44 473Q44 478 45 481T49 486Q66 495 111 502T209 510Q265 510 296 484T327 389V323Q327 266 326 214T324 115T321 28Q309 21 278 6T190 -10ZM197 14Q231 14 259 24T297 43Q299 70 300 107T302 185T303 264Q284 269 260 272T217 275Q189 275 163 271T115
254T82 212T69 136Q69 91 79 66T108 30T150 17T197 14ZM182 567Q147 567 125 585T103 650Q103 693 126 713T189 734Q228 734 247 716T267 650Q267 610 245 589T182 567ZM182 591Q211 591 227 605T243 651Q243 685 230 697T190 710Q160 710 144 697T127 647Q127
621 141 606T182 591Z" />
<glyph unicode="&#xe6;" horiz-adv-x="666" d="M474 -8Q438 -8 407 -1T353 29T318 98T305 221Q305 322 321 380T365 466T423 502T485 510Q553 510 581 469T610 359Q610 330 609 300T603 246Q558 237 509 238T418 244T350 254T324 259V283Q324 283 350 278T417
268T502 261T582 267Q584 290 585 309T586 347Q585 413 565 449T486 486Q462 486 435 480T384 449T344 370T329 217Q329 147 340 107T371 47T417 22T473 16Q510 16 544 25T601 53Q604 47 605 40T606 29Q606 24 588 15T539 -1T474 -8ZM197 14Q231 14 262 22T303
41V264Q284 269 260 272T217 275Q189 275 163 271T115 253T82 210T69 131Q69 76 87 51T135 20T197 14ZM190 -8Q163 -9 138 -6T91 12T58 55T45 135Q45 189 59 221T97 269T151 291T212 297Q238 297 261 295T303 287Q303 287 303 305T303 347T303 385Q303 428 290
449T253 478T198 486Q150 486 112 478T52 456Q51 460 50 463T49 470Q49 475 51 479T57 484Q74 493 111 501T206 510Q264 510 295 484T327 389V22Q315 15 281 4T190 -8Z" />
<glyph unicode="&#xe7;" horiz-adv-x="352" d="M201 -10Q170 -10 143 -2T95 32T62 107T50 239Q50 329 66 383T110 464T170 501T232 510Q264 510 290 499T316 476Q316 473 315 468T310 458Q298 468 277 477T225 486Q201 486 175 478T125 445T88 370T74 234Q74 163
84 120T111 53T153 22T205 13Q244 13 271 26T312 53Q315 49 316 45T318 35Q318 23 286 7T201 -10ZM214 -177Q195 -177 180 -174T165 -171Q165 -171 165 -167T167 -157T172 -148Q177 -143 188 -148T214 -154Q228 -154 240 -146T252 -116Q252 -92 241 -86T215 -80Q203
-80 192 -82T180 -85L199 3H224L210 -61Q210 -61 215 -60T229 -59Q246 -59 261 -70T276 -110Q276 -138 266 -152T242 -172T214 -177Z" />
<glyph unicode="&#xe8;" horiz-adv-x="390" d="M216 -10Q180 -10 149 -3T95 28T60 97T47 221Q47 320 64 378T108 465T166 501T227 510Q295 510 323 466T352 354Q352 325 351 297T345 246Q300 237 251 233T160 228T92 227T66 228V252Q66 252 92 252T159 252T244
256T324 267Q326 290 327 307T328 342Q327 408 307 447T228 486Q204 486 177 480T126 449T86 369T71 217Q71 147 82 107T113 46T159 20T215 14Q252 14 286 23T343 51Q346 45 347 40T348 32Q348 25 330 15T281 -2T216 -10ZM286 579Q258 599 232 618T187 654T156
679T144 689Q144 689 147 700T157 712Q157 712 169 703T201 677T246 639T296 595Q296 595 294 591T289 583T286 579Z" />
<glyph unicode="&#xe9;" horiz-adv-x="390" d="M216 -10Q180 -10 149 -3T95 28T60 97T47 221Q47 320 64 378T108 465T166 501T227 510Q295 510 323 466T352 354Q352 325 351 297T345 246Q300 237 251 233T160 228T92 227T66 228V252Q66 252 92 252T159 252T244
256T324 267Q326 290 327 307T328 342Q327 408 307 447T228 486Q204 486 177 480T126 449T86 369T71 217Q71 147 82 107T113 46T159 20T215 14Q252 14 286 23T343 51Q346 45 347 40T348 32Q348 25 330 15T281 -2T216 -10ZM154 579Q154 579 152 583T147 591T144
595Q169 618 193 639T238 676T271 702T283 712Q289 712 292 701T296 689Q296 689 285 680T254 654T209 619T154 579Z" />
<glyph unicode="&#xea;" horiz-adv-x="390" d="M216 -10Q180 -10 149 -3T95 28T60 97T47 221Q47 320 64 378T108 465T166 501T227 510Q295 510 323 466T352 354Q352 325 351 297T345 246Q300 237 251 233T160 228T92 227T66 228V252Q66 252 92 252T159 252T244
256T324 267Q326 290 327 307T328 342Q327 408 307 447T228 486Q204 486 177 480T126 449T86 369T71 217Q71 147 82 107T113 46T159 20T215 14Q252 14 286 23T343 51Q346 45 347 40T348 32Q348 25 330 15T281 -2T216 -10ZM312 580Q312 580 299 594T268 627T237
660T223 675Q223 675 209 661T177 628T143 595T125 581Q115 581 111 587T106 594L216 697Q218 699 224 699Q227 699 230 698T238 692Q238 692 252 678T286 644T319 611T334 596Q334 596 328 588T312 580Z" />
<glyph unicode="&#xeb;" horiz-adv-x="390" d="M216 -10Q180 -10 149 -3T95 28T60 97T47 221Q47 320 64 378T108 465T166 501T227 510Q295 510 323 466T352 354Q352 325 351 297T345 246Q300 237 251 233T160 228T92 227T66 228V252Q66 252 92 252T159 252T244
256T324 267Q326 290 327 307T328 342Q327 408 307 447T228 486Q204 486 177 480T126 449T86 369T71 217Q71 147 82 107T113 46T159 20T215 14Q252 14 286 23T343 51Q346 45 347 40T348 32Q348 25 330 15T281 -2T216 -10ZM169 614Q159 615 155 622T152 642Q153
656 157 663T171 670Q181 670 185 662T189 640Q188 627 184 621T169 614ZM269 614Q259 615 255 622T252 642Q253 656 257 663T271 670Q281 670 285 662T289 640Q288 627 284 621T269 614Z" />
<glyph unicode="&#xec;" horiz-adv-x="166" d="M71 0V485Q71 493 73 496T80 499T95 500V10Q95 5 94 3T88 1T71 0ZM405 579Q377 599 351 618T306 654T275 679T263 689Q263 689 266 700T276 712Q276 712 288 703T320 677T365 639T415 595Q415 595 413 591T408 583T405 579Z" />
<glyph unicode="&#xed;" horiz-adv-x="166" d="M71 0V485Q71 493 73 496T80 499T95 500V10Q95 5 94 3T88 1T71 0ZM273 579Q273 579 271 583T266 591T263 595Q288 618 312 639T357 676T390 702T402 712Q408 712 411 701T415 689Q415 689 404 680T373 654T328 619T273 579Z" />
<glyph unicode="&#xee;" horiz-adv-x="166" d="M71 0V485Q71 493 73 496T80 499T95 500V10Q95 5 94 3T88 1T71 0ZM431 580Q431 580 418 594T387 627T356 660T342 675Q342 675 328 661T296 628T262 595T244 581Q234 581 230 587T225 594L335 697Q337 699 343 699Q346
699 349 698T357 692Q357 692 371 678T405 644T438 611T453 596Q453 596 447 588T431 580Z" />
<glyph unicode="&#xef;" horiz-adv-x="166" d="M71 0V485Q71 493 73 496T80 499T95 500V10Q95 5 94 3T88 1T71 0ZM288 614Q278 615 274 622T271 642Q272 656 276 663T290 670Q300 670 304 662T308 640Q307 627 303 621T288 614ZM388 614Q378 615 374 622T371 642Q372
656 376 663T390 670Q400 670 404 662T408 640Q407 627 403 621T388 614Z" />
<glyph unicode="&#xf0;" horiz-adv-x="450" d="M229 -10Q170 -10 130 18T68 104T47 256Q47 381 94 444T231 508Q289 508 333 480T396 389V351Q371 418 329 451T232 484Q182 484 146 460T91 385T71 256Q71 126 113 70T229 14Q281 14 311 38T357 104T378 197T383
300Q383 368 372 428T335 542T268 642T167 729Q169 736 173 739T181 743Q184 743 188 742T194 738Q306 660 356 553T407 289Q407 231 401 178T376 82T322 15T229 -10ZM167 611Q161 626 161 630T167 638L350 712Q356 696 356 692T350 685L167 611Z" />
<glyph unicode="&#xf1;" horiz-adv-x="422" d="M67 0V474Q94 485 120 493T175 505T232 510Q288 510 317 494T356 446T366 368V10Q366 5 365 3T359 1T342 0V364Q342 426 322 456T233 486Q205 486 164 479T91 457V10Q91 5 90 3T84 1T67 0ZM259 594Q236 594 222 603T198
623T179 644T157 653Q136 653 123 640T102 614T89 600Q86 600 82 603T76 610T73 614Q96 652 116 663T163 674Q181 674 192 666T211 647T231 628T259 619Q287 619 301 632T323 658T334 671Q339 671 342 668T347 660T349 656Q344 646 337 635T320 615T295 600T259
594Z" />
<glyph unicode="&#xf2;" horiz-adv-x="401" d="M195 -10Q161 -10 133 -1T83 34T51 111T40 248Q40 388 85 449T207 510Q258 510 292 488T343 408T361 248Q361 118 318 54T195 -10ZM196 14Q240 14 271 40T320 120T337 252Q337 346 321 396T276 466T206 486Q163 486
131 463T82 386T64 241Q64 173 73 129T98 59T140 24T196 14ZM272 579Q244 599 218 618T173 654T142 679T130 689Q130 689 133 700T143 712Q143 712 155 703T187 677T232 639T282 595Q282 595 280 591T275 583T272 579Z" />
<glyph unicode="&#xf3;" horiz-adv-x="401" d="M195 -10Q161 -10 133 -1T83 34T51 111T40 248Q40 388 85 449T207 510Q258 510 292 488T343 408T361 248Q361 118 318 54T195 -10ZM196 14Q240 14 271 40T320 120T337 252Q337 346 321 396T276 466T206 486Q163 486
131 463T82 386T64 241Q64 173 73 129T98 59T140 24T196 14ZM140 579Q140 579 138 583T133 591T130 595Q155 618 179 639T224 676T257 702T269 712Q275 712 278 701T282 689Q282 689 271 680T240 654T195 619T140 579Z" />
<glyph unicode="&#xf4;" horiz-adv-x="401" d="M195 -10Q161 -10 133 -1T83 34T51 111T40 248Q40 388 85 449T207 510Q258 510 292 488T343 408T361 248Q361 118 318 54T195 -10ZM196 14Q240 14 271 40T320 120T337 252Q337 346 321 396T276 466T206 486Q163 486
131 463T82 386T64 241Q64 173 73 129T98 59T140 24T196 14ZM298 580Q298 580 285 594T254 627T223 660T209 675Q209 675 195 661T163 628T129 595T111 581Q101 581 97 587T92 594L202 697Q204 699 210 699Q213 699 216 698T224 692Q224 692 238 678T272 644T305
611T320 596Q320 596 314 588T298 580Z" />
<glyph unicode="&#xf5;" horiz-adv-x="401" d="M195 -10Q161 -10 133 -1T83 34T51 111T40 248Q40 388 85 449T207 510Q258 510 292 488T343 408T361 248Q361 118 318 54T195 -10ZM196 14Q240 14 271 40T320 120T337 252Q337 346 321 396T276 466T206 486Q163 486
131 463T82 386T64 241Q64 173 73 129T98 59T140 24T196 14ZM254 594Q231 594 217 603T193 623T174 644T152 653Q131 653 118 640T97 614T84 600Q81 600 77 603T71 610T68 614Q91 652 111 663T158 674Q176 674 187 666T206 647T226 628T254 619Q282 619 296 632T318
658T329 671Q334 671 337 668T342 660T344 656Q339 646 332 635T315 615T290 600T254 594Z" />
<glyph unicode="&#xf6;" horiz-adv-x="401" d="M195 -10Q161 -10 133 -1T83 34T51 111T40 248Q40 388 85 449T207 510Q258 510 292 488T343 408T361 248Q361 118 318 54T195 -10ZM196 14Q240 14 271 40T320 120T337 252Q337 346 321 396T276 466T206 486Q163 486
131 463T82 386T64 241Q64 173 73 129T98 59T140 24T196 14ZM155 614Q145 615 141 622T138 642Q139 656 143 663T157 670Q167 670 171 662T175 640Q174 627 170 621T155 614ZM255 614Q245 615 241 622T238 642Q239 656 243 663T257 670Q267 670 271 662T275 640Q274
627 270 621T255 614Z" />
<glyph unicode="&#xf7;" horiz-adv-x="450" d="M51 269Q51 286 52 290T61 294H401Q401 278 400 274T391 269H51ZM221 120Q208 120 201 129T194 151Q194 163 201 172T221 181Q234 181 242 172T250 151Q250 138 242 129T221 120ZM221 376Q208 376 201 385T194 407Q194
419 201 428T221 437Q234 437 242 428T250 407Q250 394 242 385T221 376Z" />
<glyph unicode="&#xf8;" horiz-adv-x="438" d="M227 -10Q190 -10 160 -1T109 34T77 111T65 248Q65 388 109 449T230 510Q281 510 315 488T368 408T386 248Q386 118 344 54T227 -10ZM59 -18Q52 -18 47 -16T42 -5Q42 -5 49 7T66 34T83 62T91 74Q91 74 95 73T104
69T108 61Q108 61 101 49T84 22T67 -6T59 -18ZM221 14Q265 14 296 40T345 120T362 252Q362 346 346 396T301 466T231 486Q188 486 156 463T107 386T89 241Q89 173 98 129T123 59T165 24T221 14ZM117 64Q117 64 113 65T105 68T100 77L331 450Q331 450 335 449T344
445T348 437Q348 437 336 417T303 364T257 291T208 211T163 138T130 84T117 64ZM353 438Q353 438 351 438T345 440T339 444T336 451Q336 451 340 458T351 476T365 497T376 515T381 522Q381 522 385 521T394 517T398 509Q398 509 394 502T383 485T369 463T358 445T353
438Z" />
<glyph unicode="&#xf9;" horiz-adv-x="445" d="M219 -10Q161 -10 130 8T86 69T73 185V490Q73 495 74 497T80 499T97 500V178Q97 114 108 79T147 29T227 14Q247 14 282 20T348 42V490Q348 495 350 497T357 499T372 500V23Q335 4 294 -3T219 -10ZM289 579Q261 599
235 618T190 654T159 679T147 689Q147 689 150 700T160 712Q160 712 172 703T204 677T249 639T299 595Q299 595 297 591T292 583T289 579Z" />
<glyph unicode="&#xfa;" horiz-adv-x="445" d="M219 -10Q161 -10 130 8T86 69T73 185V490Q73 495 74 497T80 499T97 500V178Q97 114 108 79T147 29T227 14Q247 14 282 20T348 42V490Q348 495 350 497T357 499T372 500V23Q335 4 294 -3T219 -10ZM157 579Q157 579
155 583T150 591T147 595Q172 618 196 639T241 676T274 702T286 712Q292 712 295 701T299 689Q299 689 288 680T257 654T212 619T157 579Z" />
<glyph unicode="&#xfb;" horiz-adv-x="445" d="M219 -10Q161 -10 130 8T86 69T73 185V490Q73 495 74 497T80 499T97 500V178Q97 114 108 79T147 29T227 14Q247 14 282 20T348 42V490Q348 495 350 497T357 499T372 500V23Q335 4 294 -3T219 -10ZM315 580Q315 580
302 594T271 627T240 660T226 675Q226 675 212 661T180 628T146 595T128 581Q118 581 114 587T109 594L219 697Q221 699 227 699Q230 699 233 698T241 692Q241 692 255 678T289 644T322 611T337 596Q337 596 331 588T315 580Z" />
<glyph unicode="&#xfc;" horiz-adv-x="445" d="M219 -10Q161 -10 130 8T86 69T73 185V490Q73 495 74 497T80 499T97 500V178Q97 114 108 79T147 29T227 14Q247 14 282 20T348 42V490Q348 495 350 497T357 499T372 500V23Q335 4 294 -3T219 -10ZM172 614Q162 615
158 622T155 642Q156 656 160 663T174 670Q184 670 188 662T192 640Q191 627 187 621T172 614ZM272 614Q262 615 258 622T255 642Q256 656 260 663T274 670Q284 670 288 662T292 640Q291 627 287 621T272 614Z" />
<glyph unicode="&#xfd;" horiz-adv-x="386" d="M71 -193Q45 -193 27 -189T8 -174Q8 -169 10 -164T16 -157Q29 -163 45 -166T72 -169Q105 -169 134 -135T186 -16L45 490Q44 495 44 497T50 499T67 500L167 141Q174 116 179 93T189 50T195 20T198 9Q198 9 200 20T206
50T215 93T228 143L320 490Q322 495 323 497T329 499T348 500L205 -35Q189 -94 169 -128T124 -178T71 -193ZM127 579Q127 579 125 583T120 591T117 595Q142 618 166 639T211 676T244 702T256 712Q262 712 265 701T269 689Q269 689 258 680T227 654T182 619T127
579Z" />
<glyph unicode="&#xfe;" horiz-adv-x="419" d="M81 -200Q76 -200 73 -199T70 -193V470Q103 491 137 500T212 509Q265 509 302 489T359 421T379 287Q379 208 366 155T330 69T282 19T232 -3T189 -9Q152 -9 129 3T94 29V-199Q90 -200 87 -200T81 -200ZM187 15Q206
15 234 24T290 61T336 141T355 281Q355 362 338 406T288 467T214 485Q177 485 148 477T94 453V63Q111 38 135 27T187 15ZM70 245V720Q70 728 72 731T79 734T94 735V255L70 245Z" />
<glyph unicode="&#xff;" horiz-adv-x="386" d="M71 -193Q45 -193 27 -189T8 -174Q8 -169 10 -164T16 -157Q29 -163 45 -166T72 -169Q105 -169 134 -135T186 -16L45 490Q44 495 44 497T50 499T67 500L167 141Q174 116 179 93T189 50T195 20T198 9Q198 9 200 20T206
50T215 93T228 143L320 490Q322 495 323 497T329 499T348 500L205 -35Q189 -94 169 -128T124 -178T71 -193ZM142 614Q132 615 128 622T125 642Q126 656 130 663T144 670Q154 670 158 662T162 640Q161 627 157 621T142 614ZM242 614Q232 615 228 622T225 642Q226
656 230 663T244 670Q254 670 258 662T262 640Q261 627 257 621T242 614Z" />
<glyph unicode="&#x2013;" horiz-adv-x="450" d="M50 269Q50 286 51 290T60 294H400Q400 278 399 274T390 269H50Z" />
<glyph unicode="&#x2014;" horiz-adv-x="700" d="M6 269Q6 286 7 290T16 294H694Q694 278 693 274T684 269H6Z" />
<glyph unicode="&#x2018;" horiz-adv-x="141" d="M67 584Q56 584 49 590T42 618Q42 638 47 666T59 722T73 768T86 787Q90 787 94 783T99 775Q91 757 86 732T80 682T78 641Q84 637 88 630T93 612Q93 599 86 592T67 584Z" />
<glyph unicode="&#x2019;" horiz-adv-x="141" d="M55 575Q51 575 47 579T42 587Q50 606 55 631T62 680T63 721Q57 725 53 732T48 750Q48 763 55 770T74 778Q85 778 92 772T99 744Q99 724 94 696T82 640T68 594T55 575Z" />
<glyph unicode="&#x201a;" horiz-adv-x="141" d="M55 -110Q51 -110 47 -106T42 -98Q50 -79 55 -54T62 -5T63 36Q57 40 53 47T48 65Q48 78 55 85T74 93Q85 93 92 87T99 59Q99 39 94 11T82 -45T68 -91T55 -110Z" />
<glyph unicode="&#x201c;" horiz-adv-x="266" d="M192 584Q181 584 174 590T167 618Q167 638 172 666T184 722T198 768T211 787Q215 787 219 783T224 775Q216 757 211 732T205 682T203 641Q209 637 213 630T218 612Q218 599 211 592T192 584ZM67 584Q56 584 49
590T42 618Q42 638 47 666T59 722T73 768T86 787Q90 787 94 783T99 775Q91 757 86 732T80 682T78 641Q84 637 88 630T93 612Q93 599 86 592T67 584Z" />
<glyph unicode="&#x201d;" horiz-adv-x="266" d="M180 575Q176 575 172 579T167 587Q175 606 180 631T187 680T188 721Q182 725 178 732T173 750Q173 763 180 770T199 778Q210 778 217 772T224 744Q224 724 219 696T207 640T193 594T180 575ZM55 575Q51 575 47
579T42 587Q50 606 55 631T62 680T63 721Q57 725 53 732T48 750Q48 763 55 770T74 778Q85 778 92 772T99 744Q99 724 94 696T82 640T68 594T55 575Z" />
<glyph unicode="&#x201e;" horiz-adv-x="266" d="M180 -110Q176 -110 172 -106T167 -98Q175 -79 180 -54T187 -5T188 36Q182 40 178 47T173 65Q173 78 180 85T199 93Q210 93 217 87T224 59Q224 39 219 11T207 -45T193 -91T180 -110ZM55 -110Q51 -110 47 -106T42
-98Q50 -79 55 -54T62 -5T63 36Q57 40 53 47T48 65Q48 78 55 85T74 93Q85 93 92 87T99 59Q99 39 94 11T82 -45T68 -91T55 -110Z" />
<glyph unicode="&#x2022;" horiz-adv-x="202" d="M108 228Q87 228 75 243T63 280Q63 300 75 315T108 330Q129 330 142 315T156 280Q156 258 143 243T108 228Z" />
<glyph unicode="&#x2039;" horiz-adv-x="268" d="M200 0Q200 0 189 17T159 61T120 118T82 177T52 226T40 250Q40 254 51 273T79 321T116 381T152 439T181 483T192 500Q197 500 200 497T206 491T208 488Q208 485 198 466T171 420T137 364T102 309T76 267T65 250Q65
250 75 234T103 192T139 137T175 82T202 38T213 18Q213 18 211 14T207 5T200 0Z" />
<glyph unicode="&#x203a;" horiz-adv-x="268" d="M69 0Q69 0 67 0T62 3T57 8T55 17Q55 19 65 36T93 80T129 136T165 191T192 233T203 250Q203 250 193 266T166 308T132 363T97 420T71 466T60 488Q60 491 62 493T68 497T73 499T76 500Q76 500 87 483T115 439T152
381T188 322T217 274T228 250Q228 246 217 226T187 178T149 119T110 61T81 17T69 0Z" />
</font>
</defs>
</svg>
